Download About Time (2013) DVDRip XviD-MAXSPEEDTorrent

login Login create account Konto erstellen Separator English  Francais  Espanol  Italiano  Deutsch
Torrent > Movies > Romance > About Time (2013) DVDRip XviD-MAXSPEED


About Time (2013) DVDRip XviD-MAXSPEED


Informationen über About Time (2013) DVDRip XviD-MAXSPEED

- Diesen Torrent runterladen

Seeds 69
Peers 53
Größe 670.8 MB
Hinzugefügt Friday, 15 November 2013 at 04:18:24
Commentts 0
Kategorie Movies Romance
Hash 82c5dbf73563f7a41cd0c2401f976d84140f8153
Reported Verified (0) - Fake (0) - Password (0) - Virus (0)
Uploader Anonymous

Description





Writing library : VirtualDubMod build 2542/release
Original source form : MAX TORRENTZ
Copyright : SIGISMUNT


Video
ID : 0
Format : MPEG-4 Visual
Format profile : Advanced Simple@L5
Format settings, BVOP : 2
Format settings, QPel : No
Format settings, GMC : No warppoints
Format settings, Matrix : Custom
Codec ID : XVID
Codec ID/Hint : XviD
Duration : 1h 49mn
Bit rate : 1 511 Kbps
Width : 720 pixels
Height : 304 pixels
Display aspect ratio : 2.35:1
Frame rate : 23.976 fps
Color space : YUV
Chroma subsampling : 4:2:0
Bit depth : 8 bits
Scan type : Progressive
Compression mode : Lossy
Bits/(Pixel*Frame) : 0.288
Stream size : 1.16 GiB (80%)
Writing library : XviD 1.2.1 (UTC 2008-12-04)

Audio
ID : 1
Format : AC-3
Format/Info : Audio Coding 3
Mode extension : CM (complete main)
Format settings, Endianness : Big
Codec ID : 2000
Duration : 1h 49mn
Bit rate mode : Constant
Bit rate : 384 Kbps
Channel(s) : 2 channels
Channel positions : Front: L R
Sampling rate : 48.0 KHz
Bit depth : 16 bits
Compression mode : Lossy
Stream size : 301 MiB (20%)
Alignment : Aligned on interleaves
Interleave, duration : 64 ms (1.53 video frames)
Interleave, preload duration : 192 ms



Kommentare zu About Time (2013) DVDRip XviD-MAXSPEED

00 COMMENT(S) INSIDE

Keine Kommentare für diese Datei verfügbar!



Post a comment

Username
Password



Files

Filename Size
About Time (2013) DVDRip XviD-MAXSPEED.wmv 669.6 MB
www.worldshouts.com.jpg 166 KB
About Time (2013) DVDRip XviD-MAXSPEED.srt 46 KB

Sharen About Time (2013) DVDRip XviD-MAXSPEED

Permalink URL
Standard HREF Link Code
Link For Forums
Bookmark

Andere Torrents die Sie interessieren könnten

Movies torrents: letzte Suchergebnisse



www.usenet.nl


Torrents Stats
Heute
3725 neue Torrents
Gesamt
13217775 Torrents

Cinema News


Zuletzt gesucht

Freunde


RSS2



DMCA Info  |  Datenschutzrichtlinie  |  Kontakt  | 
Copyright 2007-2013 ©SUMOTorrent. Alle Rechte vorbehalten.

Download About Time (2013) DVDRip XviD-MAXSPEEDTorrent