Download RamLeela.2013.720p.BRRip.x264.HDTorrent

login Login create account Konto erstellen Separator English  Francais  Espanol  Italiano  Deutsch
Torrent > Movies > Drama > RamLeela.2013.720p.BRRip.x264.HD


RamLeela.2013.720p.BRRip.x264.HD


Informationen über RamLeela.2013.720p.BRRip.x264.HD

- Diesen Torrent runterladen

Seeds 574
Peers 375
Größe 724 MB
Hinzugefügt Wednesday, 20 November 2013 at 14:55:19
Commentts 0
Kategorie Movies Drama
Hash e5cdeea281a241814957ff1c1c5b652034af5a31
Reported Verified (2) - Fake (0) - Password (0) - Virus (0)
Uploader Anonymous

Description

Format : AVI
Format/Info : Audio Video Interleave
Format profile : OpenDML
Overall bit rate : 1 800 Kbps
Writing application : VirtualDubMod 1.5.10.2 (build 2542/release)
Writing library : VirtualDubMod build 2542/release

Video

Format : MPEG-4 Visual
Format settings, BVOP : Yes
Format settings, QPel : No
Format settings, Matrix : Default (MPEG)
Codec ID : x264
Codec ID/Hint : x264
Bit rate : 1 411 Kbps
Width : 1280 pixels
Height : 720 pixels
Display aspect ratio : 16:9
Frame rate : 29.97 fps
Resolution : 24 bits
Colorimetry : 4:2:0
Scan type : Progressive
Bits/(Pixel*Frame) : 0.338
Stream size : 1.03 GiB (78%)

Audio

Format : AC-3
Format/Info : Audio Coding 3
Codec ID : 2000
Bit rate mode : Constant
Bit rate : 384 Kbps
Channel(s) : 6 channels
Channel positions : Front: L C R, Surround: L R, LFE
Sampling rate : 48.0 KHz
Stream size : 287 MiB (21%)
Alignment : Aligned on interleaves
Interleave, duration : 64 ms (1.53 video frames)
Interleave, preload duration : 192 ms

Kommentare zu RamLeela.2013.720p.BRRip.x264.HD

00 COMMENT(S) INSIDE

Keine Kommentare für diese Datei verfügbar!



Post a comment

Username
Password



Files

Filename Size
RamLeela.2013.720p.BRRip.x264.HD 712 MB
Dmt Nfo.txt 2 KB
RamLeela.2013.720p.BRRip.x264.HD.avi 10 MB
RamLeela.2013.720p.BRRip.x264.HD.jpeg 1 MB
RamLeela.2013.720p.BRRip.x264.HD.nfo 2 KB
Torrent Downloaded From downloadhindimovies.in.txt 2 KB
Torrent downloaded from h33t.com.txt 2 KB

Sharen RamLeela.2013.720p.BRRip.x264.HD

Permalink URL
Standard HREF Link Code
Link For Forums
Bookmark

Andere Torrents die Sie interessieren könnten

Movies torrents: letzte Suchergebnisse



www.usenet.nl


Torrents Stats
Heute
3598 neue Torrents
Gesamt
13217113 Torrents

Cinema News


Zuletzt gesucht

Freunde


RSS2



DMCA Info  |  Datenschutzrichtlinie  |  Kontakt  | 
Copyright 2007-2013 ©SUMOTorrent. Alle Rechte vorbehalten.

Download RamLeela.2013.720p.BRRip.x264.HDTorrent