- Download In.Time.2011.R5.DVDRip.XVID.Clear.AC3.5.1.HQ.Hive-CM8 Torrent

Download In.Time.2011.R5.DVDRip.XVID.Clear.AC3.5.1.HQ.Hive-CM8Torrent

login Login create account Konto erstellen Separator English  Francais  Espanol  Italiano  Deutsch
Torrent > Movies > Action > In.Time.2011.R5.DVDRip.XVID.Clear.AC3.5.1.HQ.Hive-CM8


Verified In.Time.2011.R5.DVDRip.XVID.Clear.AC3.5.1.HQ.Hive-CM8


Download

Informationen über In.Time.2011.R5.DVDRip.XVID.Clear.AC3.5.1.HQ.Hive-CM8

- Diesen Torrent runterladen

Seeds 34650
Peers 20018
Größe 1.6 GB
Hinzugefügt Saturday, 03 December 2011 at 19:19:03
Commentts 0
Kategorie Movies Action
Hash dfed1974aad5792335cd50fe56ab8eccfd325ff9
Reported Verified (6) - Fake (1) - Password (1) - Virus (1)
Uploader memory100

Description

[img]http://img10.imageshack.us/img10/945/intime.jpg[/img]
[code]

In.Time.2011.R5.DVDRip.XVID.Clear.AC3.5.1.HQ.Hive-CM8


Thx Hive

CM8 Doing It Right The First Time

!!Cleared line!!

Sources:
Video: Russian DVD-9
Vremya.2011.DVD9
Audio: Mistere Proper R5 Line
thx

Info:

Last 3 days i had 12h workshifts each - some of us have to work in real life8)
will try to get you the missed movies asap.

But now to this Movie.

Encode:

There are already loads of versions around, i am sure you have collected at least 3 versions already, and you are not satisfied with any of it for sure.

This is the version you shouldnt miss.

There is either the hollow line that sounds like a mic or the proper line, which has a buzz like crazy.
But that is the better audio to begin with, removing the buzz was very easy, just took me couple mins.
what took ages was that other rumbling sounding noise in the background which was noticeable after the buzz was gone, that was the only thing standing in the way of a great line.
Removing that took me more than 8h.
Needed 15 steps in restoration,i didnt want to touch the voices, so i had to be careful.
that background noise is still very slightly there, sounds as perfect now as possible, entered that final audio back into the russian 5.1 track and it was ready to go.

To the Video:

the dvd was very good, just the typical r5 cleaning was needed.
sharpness,rgb,brightness and denoise.
got very nice in the end.
Quality approved
check extra long sample
enjoy

Video: 720x304 @bitrate 1800 2pass
Audio: English AC3 5.1 @384
Sample: yes extra long included


http://www.imdb.com/title/tt1637688/


General
Complete name : In.Time.2011.R5.DVDRip.XVID.Clear.AC3.5.1.HQ.Hive-CM8.avi
Format : AVI
Format/Info : Audio Video Interleave
File size : 1.60 GiB
Duration : 1h 44mn
Overall bit rate : 2 193 Kbps
Writing application : Nandub v1.0rc2
Writing library : Nandub build 1853/release

Video
ID : 0
Format : MPEG-4 Visual
Format profile : Advanced Simple@L5
Format settings, BVOP : 2
Format settings, QPel : Yes
Format settings, GMC : No warppoints
Format settings, Matrix : Default (H.263)
Muxing mode : Packed bitstream
Codec ID : XVID
Codec ID/Hint : XviD
Duration : 1h 44mn
Bit rate : 1 800 Kbps
Width : 720 pixels
Height : 304 pixels
Display aspect ratio : 2.35:1
Frame rate : 25.000 fps
Color space : YUV
Chroma subsampling : 4:2:0
Bit depth : 8 bits
Scan type : Progressive
Compression mode : Lossy
Bits/(Pixel*Frame) : 0.329
Stream size : 1.32 GiB (82%)
Writing library : XviD 1.2.1 (UTC 2008-12-04)

Audio
ID : 1
Format : AC-3
Format/Info : Audio Coding 3
Mode extension : CM (complete main)
Codec ID : 2000
Duration : 1h 44mn
Bit rate mode : Constant
Bit rate : 384 Kbps
Channel(s) : 6 channels
Channel positions : Front: L C R, Side: L R, LFE
Sampling rate : 48.0 KHz
Bit depth : 16 bits
Compression mode : Lossy
Stream size : 288 MiB (18%)
Alignment : Split accross interleaves
Interleave, duration : 40 ms (1.00 video frame)
Interleave, preload duration : 500 ms


Plot:

In the not-too-distant future the aging gene has been switched off. To avoid overpopulation,
time has become the currency and the way people pay for luxuries and necessities.
The rich can live forever, while the rest try to negotiate for their immortality.
A poor young man who comes into a fortune of time, though too late to help his mother from dying.
He ends up on the run from a police force known as \'time keepers\'.

Cast:

Cillian Murphy ... Raymond Leon
Justin Timberlake ... Will Salas
Amanda Seyfried ... Sylvia Weis
Shyloh Oostwald ... Maya

[/code]
Screens:
[img]http://img26.imageshack.us/img26/738/11688218.png/img]
[img]http://img838.imageshack.us/img838/4001/59037408.png/img]
[img]http://img855.imageshack.us/img855/4314/46958160.png/img]
[img]http://img811.imageshack.us/img811/2079/23508275.png/img]
[img]http://img59.imageshack.us/img59/408/46532817.png/img]
[img]http://img403.imageshack.us/img403/2914/98341682.png/img]

Kommentare zu In.Time.2011.R5.DVDRip.XVID.Clear.AC3.5.1.HQ.Hive-CM8

7676 COMMENT(S) INSIDE

DA : dipenavi on Friday, 29 September 2017 at 05:07:26
Girls who love anal sex in your city. On our website --> http://xxdating.tk
DA : shuvo on Saturday, 02 April 2016 at 08:05:00
free hd movies online downloading http://watchingonline420.blogspot.com/
DA : roufmondol24 on Wednesday, 23 March 2016 at 21:41:59
all latest hd all movie download site please visit>>>> http://fullmovies-download24.blogspot.com/
DA : roufmondol24 on Wednesday, 23 March 2016 at 21:41:52
Unlimited Movies Download Online>>>>> http://w.atch.me/j614v
DA : roufmondol24 on Wednesday, 23 March 2016 at 21:41:34
all latest hd all movie download site please visit>>>> http://fullmovies-download24.blogspot.com/
DA : roufmondol24 on Wednesday, 23 March 2016 at 21:41:28
Unlimited Movies Download Online>>>>> http://w.atch.me/j614v
DA : roufmondol24 on Wednesday, 23 March 2016 at 21:41:21
all latest hd all movie download site please visit>>>> http://fullmovies-download24.blogspot.com/
DA : roufmondol24 on Wednesday, 23 March 2016 at 21:41:12
Unlimited Movies Download Online>>>>> http://ef829adr63ewcy8lpfmg5m6pfq.hop.clickbank.net/
DA : roufmondol24 on Wednesday, 23 March 2016 at 21:41:04
Unlimited Movies Download Online>>>>> http://w.atch.me/j614v
DA : voloday on Tuesday, 08 March 2016 at 10:22:59
To get a film Reckless Max: Road of fury in HD kachestvino it is possible here http://yotafiles.com/477416 в прокате с2016г.8000 просмотров!!



Post a comment

Username
Password



Files

Filename Size
HDSceneRG.txt 115 Bytes
In.Time.2011.R5.DVDRip.XVID.Clear.AC3.5.1.HQ.Hive-CM8.avi 1.6 GB
In.Time.2011.R5.DVDRip.XVID.Clear.AC3.5.1.HQ.Hive-CM8.nfo 5 KB
Torrent downloaded from Demonoid.me.txt 46 Bytes
att-networks.com.txt 39 Bytes
darkcore.me.txt 96 Bytes
sample.avi 35.4 MB
sceneunderground.org.txt 77 Bytes

Sharen In.Time.2011.R5.DVDRip.XVID.Clear.AC3.5.1.HQ.Hive-CM8

Permalink URL
Standard HREF Link Code
Link For Forums
Bookmark

Andere Torrents die Sie interessieren könnten

Movies torrents: letzte Suchergebnisse

<




Torrents Stats
Heute
0 neue Torrents
Gesamt
13376694 Torrents


Zuletzt gesucht

Freunde


RSS2




DMCA Info  |  Datenschutzrichtlinie  |  Kontakt
Copyright 2007-2015 ©SUMOTorrent. Alle Rechte vorbehalten.

Download In.Time.2011.R5.DVDRip.XVID.Clear.AC3.5.1.HQ.Hive-CM8Torrent