Download Delivery Man.2013.DVDRip.XviD-DiAMONDTorrent

login Login create account Create account Separator English  Francais  Espanol  Italiano  Deutsch
Torrent > Movies > Comedy > Delivery Man.2013.DVDRip.XviD-DiAMOND


Delivery Man.2013.DVDRip.XviD-DiAMOND


Information about Delivery Man.2013.DVDRip.XviD-DiAMOND

- Download torrent

Seeds 200
Peers 91
Size 682.5 MB
Date Monday, 16 December 2013 at 10:59:57
Comments 0
Category Movies Comedy
Hash b5266962fb7a4c33e3dab15e606512400987ec28
Reported Verified (0) - Fake (0) - Password (0) - Virus (0)
Uploader Anonymous

Description







Overall bit rate mode : Variable
Overall bit rate : 1 290 Kbps
Encoded date : UTC 2013-12-12 03:08:42
Writing application : mkvmerge v6.5.0 ('Isn't she lovely') built on Oct 20 2013 12:50:05
Writing library : libebml v1.3.0 + libmatroska v1.4.1

Video
ID : 1
Format profile : High@L4.1
Format settings, CABAC : Yes
Format settings, ReFrames : 3 frames
Codec ID : V_MPEG4/ISO/AVC
Duration : 1h 32mn
Bit rate mode : Variable
Bit rate : 1 072 Kbps
Maximum bit rate : 40.0 Mbps
Width : 720 pixels
Height : 364 pixels
Display aspect ratio : 1.978
Frame rate mode : Constant
Frame rate : 23.976 fps
Color space : YUV
Chroma subsampling : 4:2:0
Bit depth : 8 bits
Scan type : Progressive
Bits/(Pixel*Frame) : 0.171
Stream size : 609 MiB (83%)
Writing library : x264 core 140 r2377 1ca7bb9

Audio
ID : 2
Format : AC-3
Format/Info : Audio Coding 3
Mode extension : CM (complete main)
Format settings, Endianness : Big
Codec ID : A_AC3
Duration : 1h 32mn
Bit rate mode : Constant
Bit rate : 192 Kbps
Channel(s) : 2 channels
Channel positions : Front: L R
Sampling rate : 48.0 KHz
Bit depth : 16 bits
Compression mode : Lossy
Stream size : 107 MiB (15%)
Language : English
Default : Yes
Forced : No


Comments on Delivery Man.2013.DVDRip.XviD-DiAMOND

00 COMMENT(S) INSIDE

No comments available for this file !



Post a comment

Username
Password



Files

Filename Size
Delivery Man.2013.DVDRip.XviD-DiAMOND.wmv 681.3 MB
www.worldshouts.com.jpg 166 KB
Delivery Man.2013.DVDRip.XviD-DiAMOND..srt 46 KB

Share Delivery Man.2013.DVDRip.XviD-DiAMOND

Permalink URL
Standard HREF Link Code
Link For Forums
Bookmark

Other torrents that might interest you

Movies torrents: recent searches



www.usenet.nl


Torrents Stats
ADDED TODAY
4745 torrent(s)
TOTAL
13188676 torrents

Cinema News


Latest searches

Friends


RSS2



DMCA Info  |  Privacy policy  |  Contact  | 
Copyright 2007-2013 ©SUMOTorrent. All rights reserved.

Download Delivery Man.2013.DVDRip.XviD-DiAMONDTorrent