Download Le Loup de Wall Street 2014 FRENCH DVDRip XviD-playHDTorrent

login Login create account Create account Separator English  Francais  Espanol  Italiano  Deutsch
Torrent > Movies > Comedy > Le Loup de Wall Street 2014 FRENCH DVDRip XviD-playHD


Le Loup de Wall Street 2014 FRENCH DVDRip XviD-playHD


Information about Le Loup de Wall Street 2014 FRENCH DVDRip XviD-playHD

- Download torrent

Seeds 375
Peers 423
Size 701.4 MB
Date Saturday, 01 February 2014 at 05:08:02
Comments 0
Category Movies Comedy
Hash 392be4213f1cb0a15d923c3484d4b409961bcfad
Reported Verified (0) - Fake (0) - Password (0) - Virus (0)
Uploader Anonymous

Description

Le Loup de Wall Street 2014 FRENCH DVDRip XviD-playHD


Video
ID : 0
Format : MPEG-4 Visual
Format profile : Advanced Simple@L5
Format settings, BVOP : 2
Format settings, QPel : No
Format settings, GMC : No warppoints
Format settings, Matrix : Default (H.263)
Muxing mode : Packed bitstream
Codec ID : XVID
Codec ID/Hint : XviD
Duration : 3h 00mn
Bit rate : 802 Kbps
Width : 720 pixels
Height : 310 pixels
Display aspect ratio : 2.500
Frame rate : 23.976 fps
Color space : YUV
Chroma subsampling : 4:2:0
Bit depth : 8 bits
Scan type : Progressive
Compression mode : Lossy
Bits/(Pixel*Frame) : 0.420
Stream size : 657 MiB (94%)
Writing library : XviD 64

Audio
ID : 1
Format : MPEG Audio
Format version : Version 1
Format profile : Layer 3
Mode : Joint stereo
Mode extension : MS Stereo
Codec ID : 55
Codec ID/Hint : MP3
Duration : 3h 00mn
Bit rate mode : Constant
Bit rate : 128 Kbps
Channel(s) : 2 channels
Sampling rate : 44.1 KHz
Compression mode : Lossy
Stream size : 42.7 MiB (6%)
Alignment : Split accross interleaves
Interleave, duration : 42 ms (1.00 video frame)

Comments on Le Loup de Wall Street 2014 FRENCH DVDRip XviD-playHD

00 COMMENT(S) INSIDE

No comments available for this file !



Post a comment

Username
Password



Files

Filename Size
cover.jpg 514 KB
Le Loup de Wall Street 2014 FRENCH DVDRip XviD-playHD.nfo 2 KB
Le Loup de Wall Street 2014 FRENCH DVDRip XviD-playHD 699.7 MB
screensho2.jpg 68 KB
screenshot.jpg 58 KB
screenshot1.jpg 40 KB
screenshot3.jpg 37 KB
screenshot4.jpg 40 KB

Share Le Loup de Wall Street 2014 FRENCH DVDRip XviD-playHD

Permalink URL
Standard HREF Link Code
Link For Forums
Bookmark

Related torrents

Other torrents that might interest you

Movies torrents: recent searches



www.usenet.nl


Torrents Stats
ADDED TODAY
4856 torrent(s)
TOTAL
13194610 torrents

Cinema News


Latest searches

Friends


RSS2



DMCA Info  |  Privacy policy  |  Contact  | 
Copyright 2007-2013 ©SUMOTorrent. All rights reserved.

Download Le Loup de Wall Street 2014 FRENCH DVDRip XviD-playHDTorrent