Download Green Lantern (2011) DVDRip XviD-MAX Torrent

login Login create account Create account Separator English  Francais  Espanol  Italiano  Deutsch
Torrent > Miscellaneous > Unsorted > Green Lantern (2011) DVDRip XviD-MAX


Verified Green Lantern (2011) DVDRip XviD-MAX


Information about Green Lantern (2011) DVDRip XviD-MAX

- Download torrent

Seeds 156150
Peers 165574
Size 1.2 GB
Date Wednesday, 31 December 1969 at 19:33:31
Comments 0
Category Miscellaneous Unsorted
Hash d23c19776dbe3236d7922d444c34c107069325b7
Reported Verified (12) - Fake (0) - Password (0) - Virus (1)
Uploader Anonymous

Comments on Green Lantern (2011) DVDRip XviD-MAX

44 COMMENT(S) INSIDE

FROM : larachino on Sunday, 20 October 2013 at 16:12:31
thanks you friand
FROM : larachino on Sunday, 20 October 2013 at 16:12:09
thnak you
FROM : kingtibaba on Monday, 12 December 2011 at 17:20:58
Screens: http://imagetwist.com/whphn3ibswvg/3.jpg.html
FROM : Brand0n on Sunday, 30 October 2011 at 21:05:23
Screens http://www.postimg.com/image/48000/photo-47691.jpg -- http://www.postimg.com/image/48000/photo-47692.jpg -- http://www.postimg.com/image/48000/photo-47693.jpg -- http://www.postimg.com/image/48000/photo-47694.jpg -- Green Lantern (2011) DVDRip XviD-MAXSPEED Format : AVI Format/Info : Audio Video Interleave Format profile : OpenDML File size : 1.21 GiB Duration : 1h 53mn Overall bit rate : 1 521 Kbps Writing application : VirtualDubMod 1.5.10.2 (build 2542/release) Writing library : VirtualDubMod build 2542/release Original source form : MAX TORRENTZ Copyright : SIGISMUNT Video ID : 0 Format : MPEG-4 Visual Format profile : AdvancedSimple@L5 Format settings, BVOP : Yes Format settings, QPel : No Format settings, GMC : No warppoints Format settings, Matrix : Default (H.263) Muxing mode : Packed bitstream Codec ID : XVID Codec ID/Hint : XviD Duration : 1h 53mn Bit rate : 1 320 Kbps Width : 640 pixels Height : 272 pixels Display aspect ratio : 2.35:1 Frame rate : 23.976 fps Resolution : 24 bits Colorimetry : 4:2:0 Scan type : Progressive Bits/(Pixel*Frame) : 0.316 Stream size : 1.05 GiB (87%) Writing library : XviD 64 Audio ID : 1 Format : MPEG Audio Format version : Version 1 Format profile : Layer 3 Codec ID : 55 Codec ID/Hint : MP3 Duration : 1h 53mn Bit rate mode : Constant Bit rate : 192 Kbps Channel(s) : 2 channels Sampling rate : 48.0 KHz Resolution : 16 bits Stream size : 157 MiB (13%) Alignment : Aligned on interleaves Interleave, duration : 24 ms (0.58 video frame) Interleave, preload duration : 192 ms Writing library : LAME3.98r Source: DVD (perfect a/v/sync quality,sample included) This torrent is not seedbox supported,please seed it to the MAX Note:If you have something to offer as early releases,seedboxes,links,accounts,etc please contact us on piratepedia[@]msn/gmail.com or our website torentz 3xforum ro How To Get Your Maxspeed (uTorrent) Torrent Client - Preferences - Bandwidth - Number of connections - Set aprox. 500 for each Torrent Client - Preferences - BiTorrent - Protocol Encryption - Forced Bandwidth Allocation - High (Set download/upload limit - Unlimited) Stop Other Active Torrents - Start downloading and wait for connections. Enjoy and Seed for at least 1:1 ratio. Don't forget to say thanks/leave reviews. Before downloading you should check/google search sample "release name""sample". Greets to all actual/future p2p/scene QUALITY groups and affiliate websites. Don't trust IMDb robot or bad ratings,always watch some trailers first. Ignore stupid comments/fake/mislabeled/no-DVDrips/CAM/TS/RAR uploads. Please spread this release/torrent to your friends/forums/etc. If you need translation subs visit some subtitles sites. Report if you see online streaming or other spam links. Recommended movie player VLC PLAYER.



Post a comment

Username
Password



Files

Filename Size
Bytes

Share Green Lantern (2011) DVDRip XviD-MAX

Permalink URL
Standard HREF Link Code
Link For Forums
Bookmark

Related torrents

Other torrents that might interest you

Miscellaneous torrents: recent searches



www.usenet.nl


Torrents Stats
ADDED TODAY
2809 torrent(s)
TOTAL
13202357 torrents

Cinema News


Latest searches

Friends


RSS2



DMCA Info  |  Privacy policy  |  Contact  | 
Copyright 2007-2013 ©SUMOTorrent. All rights reserved.

Download Green Lantern (2011) DVDRip XviD-MAX Torrent