Download Nicki Minaj - Right Thru Me [KingPinVideos]Torrent

login Login create account Create account Separator English  Francais  Espanol  Italiano  Deutsch
Torrent > Music > Unsorted > Nicki Minaj - Right Thru Me [KingPinVideos]


Verified Nicki Minaj - Right Thru Me [KingPinVideos]


Download

Information about Nicki Minaj - Right Thru Me [KingPinVideos]

- Download torrent

Seeds 1516
Peers 401
Size 107.6 MB
Date Wednesday, 27 October 2010 at 21:57:52
Comments 0
Category Music Unsorted
Hash 2918d04f59e43e5f9408da1b9d79a8a137f62e18
Reported Verified (1) - Fake (1) - Password (0) - Virus (1)
Uploader Anonymous

Description






Code:
General
Complete name : Nicki Minaj - Right Thru Me [KingPinVideos].mpg
Format : MPEG-PS
File size : 108 MiB
Duration : 5mn 16s
Overall bit rate : 2 856 Kbps
Writing library : encoded by TMPGEnc 4.0 XPress Version. 4.7.4.299

Video
ID : 224 (0xE0)
Format : MPEG Video
Format version : Version 1
Format settings, BVOP : Yes
Format settings, Matrix : Default
Duration : 5mn 16s
Bit rate mode : Constant
Bit rate : 2 615 Kbps
Nominal bit rate : 2 700 Kbps
Width : 384 pixels
Height : 208 pixels
Display aspect ratio : 16:9
Frame rate : 29.970 fps
Resolution : 8 bits
Scan type : Progressive
Bits/(Pixel*Frame) : 1.092
Stream size : 98.5 MiB (92%)
Writing library : TMPGEnc XPress 4.7.4.299

Audio
ID : 192 (0xC0)
Format : MPEG Audio
Format version : Version 1
Format profile : Layer 2
Duration : 5mn 16s
Bit rate mode : Constant
Bit rate : 128 Kbps
Channel(s) : 2 channels
Sampling rate : 48.0 KHz
Stream size : 4.82 MiB (4%)


Tracker list

  1. http://inferno.demonoid.com:3406/announce
  2. http://exodus.1337x.org/announce
  3. http://nemesis.1337x.org/announce
  4. http://genesis.1337x.org:1337/announce
  5. http://fr33dom.h33t.com:3310/announce
  6. http://moonlight.tc/announce.php
  7. http://tracker.openbittorrent.com/announce
  8. http://tracker.publicbt.com/announce
  9. http://fr33dom.h33t.com:3310/announce
  10. http://denis.stalker.h3q.com/announce
  11. http://tracker.istole.it/announce
  12. http://pow7.com/announce
  13. http://9.rarbg.com:2710/announce
  14. http://tracker.openbittorrent.com:80/announce
  15. http://tracker.thepiratebay.org/announce
  16. udp://tracker.thepiratebay.org:80/announce
  17. http://torrent-downloads.to:5869/announce
  18. http://www.sumotracker.com/announce
  19. http://tracker.openbittorrent.com:80/announce
  20. http://tracker.torrentbox.com:2710/announce
  21. http://genesis.1337x.org:1337/announce
  22. http://tracker.publicbt.com:80/announce
  23. http://tracker.openbittorrent.com:80/announce

Comments on Nicki Minaj - Right Thru Me [KingPinVideos]

22 COMMENT(S) INSIDE

FROM : newfreeemovie on Saturday, 26 December 2015 at 03:31:21
Click here to get a new Musical.....http://adf.ly/1U5sSl
FROM : thunderhat on Friday, 19 November 2010 at 18:57:49
thx



Post a comment

Username
Password



Files

Filename Size
Nicki Minaj - Right Thru Me [KingPinVideos].mpg 107.6 MB
Nicki Minaj - Right Thru Me [KingPinVideos].nfo 2 KB
Nicki Minaj - Right Thru Me [KingPinVideos].txt 2 KB
Torrent downloaded from Demonoid.com.txt 47 Bytes
Torrent Downloaded from Limetorrents.com.txt 46 Bytes

Share Nicki Minaj - Right Thru Me [KingPinVideos]

Permalink URL
Standard HREF Link Code
Link For Forums
Bookmark

Other torrents that might interest you

Music torrents: recent searches

Warning! Lawsuits and Huge Fines in
Your IP Address is . Location is
Your Internet Provider can see when you download torrents! Hide your IP with a VPN!
We strongly recommend using SpyOFF VPN to hide your torrenting. It is FREE!
Get VPN Now for FREE!




Torrents Stats
ADDED TODAY
0 torrent(s)
TOTAL
13386952 torrents


Latest searches

Friends


RSS2



DMCA Info  |  Privacy policy  |  Contact
Copyright 2007-2015 ©SUMOTorrent. All rights reserved.

Download Nicki Minaj - Right Thru Me [KingPinVideos]Torrent