Download House SO7E14 HDTV XviD - u3zWHs Torrent

login Login create account Create account Separator English  Francais  Espanol  Italiano  Deutsch
Torrent > Miscellaneous > Unsorted > House SO7E14 HDTV XviD - u3zWHs


House SO7E14 HDTV XviD - u3zWHs


Download

Information about House SO7E14 HDTV XviD - u3zWHs

- Download torrent

Seeds 13
Peers 8
Size 349.6 MB
Date Saturday, 26 February 2011 at 02:34:27
Comments 0
Category Miscellaneous Unsorted
Hash 37705536700eae04669921f034fa81766daa598d
Reported Verified (0) - Fake (0) - Password (0) - Virus (0)
Uploader Anonymous

Description

------------------------------------------------------------------- Please share....Don't hit and run...Seed it back at least once. Of course, if you want to seed it back more than once, that would be ok too :) ------------------------------------------------------------------- QUALITY: PERFECT 10/10 All details are here: Format | AVI Language | ENGLISH Source | DVD PAL Subs | NONE QUALITY: PERFECT 10/10 - Video ID : 0 Format : MPEG-4 Visual Format profile : Advanced Simple@L5 Format settings, BVOP : Yes Format settings, QPel : No Format settings, GMC : No warppoints Format settings, Matrix : Default (H.263) Muxing mode : Packed bitstream Codec ID : XVID Codec ID/Hint : XviD Bit rate : 1 345 Kbps Width : 720 pixels Height : 314 pixels Display aspect ratio : 2.25:1 Frame rate : 29.970 fps Color space : YUV Chroma subsampling : 4:2:0 Bit depth : 8 bits Scan type : Progressive Compression mode : Lossy Bits/(Pixel*Frame) : 0.198 Stream size : 1.19 GiB (87%) Writing library : XviD 1.1.0 (UTC 2005-11-22) - Audio ID : 1 Format : AC-3 Format/Info : Audio Coding 3 Mode extension : CM (complete main) Codec ID : 2000 Bit rate mode : Constant Bit rate : 192 Kbps Channel(s) : 2 channels Channel positions : Front: L R Sampling rate : 48.0 KHz Bit depth : 16 bits Compression mode : Lossy Stream size : 175 MiB (12%) Alignment : Aligned on interleaves Interleave, duration : 33 ms (1.00 video frame) Interleave, preload duration : 512 ms - Greets Greets to | X | Joshua08 | IMAGiNE | PrisM | DiGiTAL iNK | ------------------------------------------------------------------- Please share....Don't hit and run...Seed it back at least once. Of course, if you want to seed it back more than once, that would be ok too :) ------------------------------------------------------------------- ------------------------------------------------------------------- Please share....Don't hit and run...Seed it back at least once. Of course, if you want to seed it back more than once, that would be ok too :) ------------------------------------------------------------------- - Notes Im looking for anybody who Wants to Supply Direct or Line Audio. Pre Released R5's, Screeners, NTSC or PAL Pre Retail DVD's or Anything else Usefull ENJOY THE SHOW! As usual, it's a perfect quality release from us! 10/10 PIRATES ROCK! -------------------------------------------------------------------------

Comments on House SO7E14 HDTV XviD - u3zWHs

00 COMMENT(S) INSIDE

No comments available for this file !



Post a comment

Username
Password



Files

Filename Size
House SO7E14 HDTV XviD-u3zWHs.rar 349.6 MB

Share House SO7E14 HDTV XviD - u3zWHs

Permalink URL
Standard HREF Link Code
Link For Forums
Bookmark

Related torrents

Other torrents that might interest you

Miscellaneous torrents: recent searches



download


Torrents Stats
ADDED TODAY
torrent(s)
TOTAL
torrents

Cinema News


Latest searches

Friends


RSS2



DMCA Info  |  Privacy policy  |  Contact
Copyright 2007-2014 ©SUMOTorrent. All rights reserved.

Download House SO7E14 HDTV XviD - u3zWHs Torrent