Download I Am Number Four 2011 TS XViD - IMAGiNE Torrent

login Login create account Create account Separator English  Francais  Espanol  Italiano  Deutsch
Torrent > Miscellaneous > Unsorted > I Am Number Four 2011 TS XViD - IMAGiNE


Verified I Am Number Four 2011 TS XViD - IMAGiNE


Download

Information about I Am Number Four 2011 TS XViD - IMAGiNE

- Download torrent

Seeds 2046
Peers 3643
Size 716.7 MB
Date Tuesday, 01 March 2011 at 02:34:00
Comments 0
Category Miscellaneous Unsorted
Hash b70a190f449da166f4bcffb8bcb92d2eb971aa4f
Reported Verified (1) - Fake (0) - Password (0) - Virus (0)
Uploader Anonymous

Description

[pre] *********** **** **** *** ******** *********** **** *** ********** *+* +*+*+* *+*+*+ *+* *+* *+* *+* *+* *+*+* *+* *+* +*+ +*+ +*+*+ +*+ +*+ +*+ +*+ +*+ *+*+*+ +*+ +*+ +$+ +$+ +*+ +$+ +$++*++$++* *$* +$+ +$+ +*+ +$+ +$++*++$ +$+ +$+ +$+ +$+ +$+ +$+ +$+$ +$+ +$+ +$+$+$ +$+ $+$ $+$ $+$ $+$ $+$ $+$ $+$ $+$ $+$ $+$+$ $+$ $$$$$$$$$$$ $$$ $$$ $$$ $$$ $$$$$$$$ $$$$$$$$$$$ $$$ $$$$ $$$$$$$$$$ Another Fine Release Brought to you from - IMAGiNE ******************************************************************************************************************** I Am Number Four TS XViD - IMAGiNE ******************************************************************************************************************** Ripper ...........: IMAGiNE IMDB Rating.......:7.8/10 Video Codec.......: XVID Release Date......:28/02/11 Audio Codec.......:MP3 Theatre Date......:18/02/11 Audio Bitrate.....:128 Runtime.......:1h 38mn Subtitles.........:NIL Language..........:ENGLISH Resolution...... 720 x 384 IMDb URL..........:http://www.imdb.com/title/tt1464540/ [color=yellow]DETAILS:[/color] Video ID : 0 Format : MPEG-4 Visual Format profile : Advanced Simple@L5 Format settings, BVOP : Yes Format settings, QPel : No Format settings, GMC : No warppoints Format settings, Matrix : Default (MPEG) Muxing mode : Packed bitstream Codec ID : XVID Codec ID/Hint : XviD Duration : 1h 38mn Bit rate : 865 Kbps Width : 720 pixels Height : 384 pixels Display aspect ratio : 1.875 Frame rate : 25.000 fps Resolution : 24 bits Colorimetry : 4:2:0 Scan type : Progressive Bits/(Pixel*Frame) : 0.125 Stream size : 611 MiB (86%) Writing library : XviD 61 Audio ID : 1 Format : MPEG Audio Format version : Version 1 Format profile : Layer 3 Codec ID : 55 Codec ID/Hint : MP3 Duration : 1h 38mn Bit rate mode : Constant Bit rate : 128 Kbps Channel(s) : 2 channels Sampling rate : 44.1 KHz Resolution : 16 bits Stream size : 90.3 MiB (13%) Alignment : Split accross interleaves Interleave, duration : 40 ms (1.00 video frame) Interleave, preload duration : 500 ms [color=yellow]SOURCES:[/color] VIDEO:Russian video ........... Thanks AUDIO:Own [color=yellow]NOTES:[/color] IMAGiNE bringing you another release.......... I Am Number Four Right here we go with a half decent TS of i am number four..... The video was the russian cam whic wasn't too bad,but had issues....dark,blurry,missing footage etc.... The audio was our own decent line. For the video we had to crop and resize and change AR slightly to source,also then used a script to change the rgb colours,increase the chroma and brightness,whilst lowering the contrast. Also we translated the russian subs to english and hardcoded them.... Audio we just need to sync and then mux to our encode. Enjoy folks :P [color=yellow]SCREENS:[/color] [color=yellow]GREETS:[/color] FLAWL3SS,ViSiON,FUSiON,Rx,SecretMyth,BirdFlu,ELEKTRI4KA,Serenity,Autotron And to all the other p2p grps past and present [COLOR=RED]Looking for these,syncers,cammers,audio,silver supplier.....Have anything to offer????...... Contact us imaginegroup@hushmail.com[/COLOR][/pre]

Comments on I Am Number Four 2011 TS XViD - IMAGiNE

11 COMMENT(S) INSIDE

FROM : Mystique0012 on Sunday, 06 March 2011 at 21:14:45
real torrent



Post a comment

Username
Password



Files

Filename Size
I Am Number Four TS XViD - IMAGiNE.avi 707.8 MB
I Am Number Four TS XViD - SAMPLE.avi 8.9 MB
I Am Number Four TS XViD - IMAGiNE.NFO 5 KB
I Am Number Four TS XViD - SAMPLE.sfv 4 KB

Share I Am Number Four 2011 TS XViD - IMAGiNE

Permalink URL
Standard HREF Link Code
Link For Forums
Bookmark

Related torrents

Other torrents that might interest you

Miscellaneous torrents: recent searches

 




Torrents Stats
ADDED TODAY
0 torrent(s)
TOTAL
7897411 torrents


Latest searches

Friends


RSS2



DMCA Info  |  Privacy policy  |  Contact
Copyright 2007-2015 ©SUMOTorrent. All rights reserved.

Download I Am Number Four 2011 TS XViD - IMAGiNE Torrent