Download Game of Thrones S01E06 A Golden Crown Torrent

login Login create account Create account Separator English  Francais  Espanol  Italiano  Deutsch
Torrent > Movies > DVD Film Extras > Game of Thrones S01E06 A Golden Crown

Removed at the request of copyright owner

Verified Game of Thrones S01E06 A Golden Crown


Download

Information about Game of Thrones S01E06 A Golden Crown

- Download torrent

Seeds 1795
Peers 1780
Size 550.2 MB
Date Tuesday, 24 May 2011 at 08:31:23
Comments 0
Category Movies DVD Film Extras
Hash f0f20e8429b0c4549fc0c90b49ca88a28dbd65f2
Reported Verified (2) - Fake (1) - Password (0) - Virus (1)
Uploader Anonymous

Description

Game of Thrones - S1-E06: A Golden Crown Original Air DateΓΓé¼ΓÇ¥22 May 2011 Reinstated as the Hand, Ned sits for the King while Robert is on a hunt, and issues a decree that could have long-term consequences throughout the Seven Kingdoms. At the Eyrie, Tyrion confesses to his "crimes," and demands that Lysa give him a trial by combat. Joffrey apologizes to Sansa; Viserys receives his final payment for Daenerys from Drogo. Format : AVI Format/Info : Audio Video Interleave File size : 550 MiB Duration : 54mn 14s Overall bit rate : 1 418 Kbps Writing application : transcode-1.0.4 Video ID : 0 Format : MPEG-4 Visual Format profile : Advanced [email protected] Format settings, BVOP : 2 Format settings, QPel : No Format settings, GMC : No warppoints Format settings, Matrix : Default (H.263) Codec ID : XVID Codec ID/Hint : XviD Duration : 54mn 14s Bit rate : 1 258 Kbps Width : 624 pixels Height : 352 pixels Display aspect ratio : 16:9 Frame rate : 23.976 fps Color space : YUV Chroma subsampling : 4:2:0 Bit depth : 8 bits Scan type : Progressive Compression mode : Lossy Bits/(Pixel*Frame) : 0.239 Stream size : 488 MiB (89%) Writing library : XviD 1.2.1 (UTC 2008-12-04) Audio ID : 1 Format : MPEG Audio Format version : Version 1 Format profile : Layer 3 Codec ID : 55 Codec ID/Hint : MP3 Duration : 54mn 14s Bit rate mode : Variable Bit rate : 128 Kbps Channel(s) : 2 channels Sampling rate : 48.0 KHz Compression mode : Lossy Stream size : 57.3 MiB (10%) Alignment : Aligned on interleaves Interleave, duration : 24 ms (0.58 video frame)

Comments on Game of Thrones S01E06 A Golden Crown

11 COMMENT(S) INSIDE

FROM : thefather_ge_x on Tuesday, 24 May 2011 at 23:51:04
real!



Post a comment

Username
Password



Files

Filename Size
game.of.thrones.s01e06.hdtv.xvid-fqm.avi 550.2 MB

Share Game of Thrones S01E06 A Golden Crown

Permalink URL
Standard HREF Link Code
Link For Forums
Bookmark

Related torrents

Other torrents that might interest you

Movies torrents: recent searches

Warning! Do Not Download Torrents Without A VPN!
Your IP Address is . Location is
Your Internet Provider can see when you download torrents! Hide your IP with a VPN!
We strongly recommend using SpyOFF VPN to hide your torrenting.
Get SpyOFF VPN Now!




Torrents Stats
ADDED TODAY
0 torrent(s)
TOTAL
14125542 torrents


Latest searches

Friends


RSS2



DMCA Info  |  Privacy policy  |  Contact
Copyright 2007-2015 ©SUMOTorrent. All rights reserved.

Download Game of Thrones S01E06 A Golden Crown Torrent