Download Rango (2011) DVDSCR XviD-MAX Torrent

login Login create account Create account Separator English  Francais  Espanol  Italiano  Deutsch
Torrent > Miscellaneous > Unsorted > Rango (2011) DVDSCR XviD-MAX


Verified Rango (2011) DVDSCR XviD-MAX


Download

Information about Rango (2011) DVDSCR XviD-MAX

- Download torrent

Seeds 78389
Peers 223803
Size 1.4 GB
Date Friday, 27 May 2011 at 08:36:26
Comments 0
Category Miscellaneous Unsorted
Hash 200b4d0697c26cbd37a23d648f18ef051bc0a6af
Reported Verified (9) - Fake (1) - Password (1) - Virus (0)
Uploader Anonymous

Comments on Rango (2011) DVDSCR XviD-MAX

22 COMMENT(S) INSIDE

FROM : Brand0n on Monday, 04 July 2011 at 05:34:13
thanks
FROM : Mystique0012 on Wednesday, 08 June 2011 at 21:08:49
http://leetleech.org/images/67121578416349506103.jpg Screens: http://leetleech.org/images/37085989094753450044.jpg http://leetleech.org/images/71295089789165449884.jpg http://leetleech.org/images/28333524772863855243.jpg http://leetleech.org/images/27133034605419951861.jpg Alternative: http://www.postimg.com/image/38000/photo-37301.jpg http://www.postimg.com/image/38000/photo-37302.jpg http://www.postimg.com/image/38000/photo-37303.jpg http://www.postimg.com/image/38000/photo-37304.jpg ScreenCaps: http://www.postimg.com/image/38000/photo-37305.jpg Rango (2011) DVDSCR XviD-MAX Format : AVI Format/Info : Audio Video Interleave Format profile : OpenDML File size : 1.37 GiB Duration : 1h 47mn Overall bit rate : 1 823 Kbps Writing application : VirtualDubMod 1.5.10.2 (build 2542/release) Writing library : VirtualDubMod build 2542/release Original source form : MAX TORRENTZ Copyright : SIGISMUNT Video ID : 0 Format : MPEG-4 Visual Format profile : AdvancedSimple@L5 Format settings, BVOP : Yes Format settings, QPel : No Format settings, GMC : No warppoints Format settings, Matrix : Custom Codec ID : XVID Codec ID/Hint : XviD Duration : 1h 47mn Bit rate : 1 625 Kbps Width : 720 pixels Height : 304 pixels Display aspect ratio : 2.35:1 Frame rate : 23.976 fps Resolution : 24 bits Colorimetry : 4:2:0 Scan type : Progressive Bits/(Pixel*Frame) : 0.310 Stream size : 1.22 GiB (89%) Writing library : XviD 58 Audio ID : 1 Format : AC-3 Format/Info : Audio Coding 3 Codec ID : 2000 Duration : 1h 47mn Bit rate mode : Constant Bit rate : 192 Kbps Channel(s) : 2 channels Channel positions : L R Sampling rate : 48.0 KHz Stream size : 147 MiB (11%) Alignment : Aligned on interleaves Interleave, duration : 64 ms (1.53 video frames) Interleave, preload duration : 192 ms http://www.imdb.com/title/tt1192628/ Source: DVDSCR (perfect a/v/sync quality , sample included) This release is not seedbox supported , please seed it to the MAX Rango (2011) DVDSCR XviD-MAX Torrent Free Download http://thepiratebay.org/user/extremezone/0/7 How To Get Your Maxspeed (uTorrent) Torrent Client - Preferences - Bandwidth - Number of connections - Set aprox. 500 for each Torrent Client - Preferences - BiTorrent - Protocol Encryption - Forced Bandwidth Allocation - High (Set download/upload limit - Unlimited) Stop Other Active Torrents - Start downloading and wait for connections. Enjoy and Seed for at least 1:1 ratio. Don't forget to say thanks/leave reviews. Before downloading you should check/google search sample "release name""sample". Greets to all actual/future p2p/scene QUALITY groups and affiliate websites. Don't trust IMDb robot or bad ratings,always watch some trailers first. Ignore stupid comments/fake/mislabeled/no-DVDrips/CAM/TS/RAR uploads. Please spread this release/torrent to your friends/forums/etc. If you need translation subs visit some subtitles sites. Report if you see online streaming or other spam links. Recommended movie player VLC PLAYER.



Post a comment

Username
Password



Files

Filename Size
Rango (2011) DVDSCR XviD-MAXSPEED www.torentz.3xforum.ro.avi 1.4 GB
sample.avi 8.1 MB
screencaps.jpeg 153 KB
Rango (2011) DVDSCR XviD-MAXSPEED.nfo 3 KB
Torrent downloaded from Demonoid.me.txt 46 Bytes
Torrent downloaded from Extratorrent.com.txt 40 Bytes
Torrent downloaded from Rarbg.com.txt 33 Bytes
Torrent downloaded from h33t.com.txt 32 Bytes

Share Rango (2011) DVDSCR XviD-MAX

Permalink URL
Standard HREF Link Code
Link For Forums
Bookmark

Related torrents

Other torrents that might interest you

Miscellaneous torrents: recent searches

 




Torrents Stats
ADDED TODAY
0 torrent(s)
TOTAL
8124675 torrents


Latest searches

Friends


RSS2



DMCA Info  |  Privacy policy  |  Contact
Copyright 2007-2015 ©SUMOTorrent. All rights reserved.

Download Rango (2011) DVDSCR XviD-MAX Torrent