Download Source Code (2011) DVDRip XviD-MAX Torrent

login Login create account Create account Separator English  Francais  Espanol  Italiano  Deutsch
Torrent > Miscellaneous > Unsorted > Source Code (2011) DVDRip XviD-MAX


Verified Source Code (2011) DVDRip XviD-MAX


Download

Information about Source Code (2011) DVDRip XviD-MAX

- Download torrent

Seeds 94397
Peers 117801
Size 1.4 GB
Date Friday, 08 July 2011 at 20:26:51
Comments 0
Category Miscellaneous Unsorted
Hash c1742f05c068350bf2831e653656015199e12803
Reported Verified (3) - Fake (1) - Password (0) - Virus (1)
Uploader Anonymous

Comments on Source Code (2011) DVDRip XviD-MAX

33 COMMENT(S) INSIDE

FROM : santiagob1981 on Wednesday, 25 April 2012 at 03:00:44
Gracias por el aporte
FROM : textron1 on Tuesday, 13 December 2011 at 19:32:47
Hi guys, you gotto see this, www.themathmachine.com Its free and it makes big money, now the fastest growing company in the world
FROM : Brand0n on Wednesday, 21 September 2011 at 21:25:25
An action thriller centered on a soldier who wakes up in the body of an unknown man and discovers he's part of a mission to find the bomber of a Chicago commuter train. -- Source Code (2011) DVDRip XviD-MAXSPEED Format : AVI Format/Info : Audio Video Inerleave Format profile : OpenDML File size : 1.36 GiB Duration : 1h 33mn Overall bit rate : 2 093 Kbps Writing application : VirtualDubMod 1.5.10.2 (build 2542/release) Writing library : VirtualDubMod build 2542/release Original source form : MAX TORRENTZ Copyright : SIGISMUNT Video ID : 0 Format : MPEG-4 Visual Format profile : AdvancedSimple@L5 Format settings, BVOP : Yes Format settings, QPel : No Format settings, GMC : No warppoints Format settings, Matrix : Default (H.263) Codec ID : XVID Codec ID/Hint : XviD Duration : 1h 33mn Bit rate : 1 897 Kbps Width : 720 pixels Height : 400 pixels Display aspect ratio : 16:9 Frame rate : 23.976 fps Resolution : 24 bits Colorimetry : 4:2:0 Scan type : Progressive Bits/(Pixel*Frame) : 0.275 Stream size : 1.23 GiB (91%) Writing library : XviD 1.2.1 (UTC 2008-12-04) Audio ID : 1 Format : MPEG Audio Format version : Version 1 Format profile : Layer 2 Codec ID : 50 Codec ID/Hint : MP1 Duration : 1h 33mn Bit rate mode : Constant Bit rate : 192 Kbps Channel(s) : 2 channels Sampling rate : 48.0 KHz Resolution : 16 bits Stream size : 128 MiB (9%) Alignment : Aligned on interleaves Interleave, duration : 436 ms (10.45 video frames) Interleave, preload duration : 216 ms Source: HDTV DVD (no hardcoded foreign subtitle and also no crop as all other available encodes,perfect a/v/sync quality,sample included) This release is not seedbox supported,please seed it to the MAX How To Get Your Maxspeed (uTorrent) Torrent Client - Preferences - Bandwidth - Number of connections - Set aprox. 500 for each Torrent Client - Preferences - BiTorrent - Protocol Encryption - Forced Bandwidth Allocation - High (Set download/upload limit - Unlimited) Stop Other Active Torrents - Start downloading and wait for connections. Enjoy and Seed for at least 1:1 ratio. Don't forget to say thanks/leave reviews. Before downloading you should check/google search sample "release name""sample". Greets to all actual/future p2p/scene QUALITY groups and affiliate websites. Don't trust IMDb robot or bad ratings,always watch some trailers first. Ignore stupid comments/fake/mislabeled/no-DVDrips/CAM/TS/RAR uploads. Please spread this release/torrent to your friends/forums/etc. If you need translation subs visit some subtitles sites. Report if you see online streaming or other spam links. Recommended movie player VLC PLAYER. --- Screens http://www.postimg.com/42000/photo-41082.jpg - http://www.postimg.com/42000/photo-41083.jpg - http://www.postimg.com/42000/photo-41084.jpg - http://www.postimg.com/42000/photo-41085.jpg - http://www.postimg.com/42000/photo-41090.jpg



Post a comment

Username
Password



Files

Filename Size
Source Code (2011) DVDRip XviD-MAXSPEED www.torentz.3xforum.ro.avi 1.4 GB
sample.avi 10.7 MB
screencaps.jpeg 635 KB
Source Code (2011) DVDRip XviD-MAXSPEED.nfo 3 KB
Torrent downloaded from Demonoid.me.txt 46 Bytes
Torrent downloaded from Extratorrent.com.txt 40 Bytes
Torrent downloaded from Rarbg.com.txt 33 Bytes
Torrent downloaded from h33t.com.txt 32 Bytes

Share Source Code (2011) DVDRip XviD-MAX

Permalink URL
Standard HREF Link Code
Link For Forums
Bookmark

Related torrents

Other torrents that might interest you

Miscellaneous torrents: recent searches

 




Torrents Stats
ADDED TODAY
0 torrent(s)
TOTAL
7258816 torrents


Latest searches

Friends


RSS2



DMCA Info  |  Privacy policy  |  Contact
Copyright 2007-2015 ©SUMOTorrent. All rights reserved.

Download Source Code (2011) DVDRip XviD-MAX Torrent