Download Gal Costa-Gal[EacFlacCue](TntVillage)Torrent

login Login create account Create account Separator English  Francais  Espanol  Italiano  Deutsch
Torrent > Music > Rock Progressive > Gal Costa-Gal[EacFlacCue](TntVillage)


Gal Costa-Gal[EacFlacCue](TntVillage)


Download

Information about Gal Costa-Gal[EacFlacCue](TntVillage)

- Download torrent

Seeds 711
Peers 173
Size 224.1 MB
Date Friday, 05 August 2011 at 13:53:08
Comments 0
Category Music Rock Progressive
Hash b4ec19f3a68f1e03e453264d7306a2b11ffa57d5
Reported Verified (0) - Fake (0) - Password (0) - Virus (0)
Uploader leonenero

Description

Titolo: GAL COSTA: Gal Mercury 2

Artisti: Gal Costa

Genere: Musica Popular Brasileira

Sottogenere: BossaPsicadelic

Data di registrazione: 29 giugno-1luglio 1969

Data di uscita: 21 marzo 1969

Casa discografica: Infinity Entertainment Gr

Durata: 35:25

Band: *Gal Costa - Vocals
*Alexander Gordin: guitar solo and bass
*Eduardo Portes de Souza: drums
*Diogenes Burani Filho: drums
*Jards Anet da Silva: acoustic guitar
*Rodolpho Grani Junior: bass

01.Cinema Olympia (3:09)
02.Tuareg (3:24)
03.Cultura E Civilização (4:20)
04.País Tropical com Caetano Veloso e Gilberto Gil (3:48)
05.Meu Nome É Gal (3:24)
06.Com Medo, Com Pedro (3:05)
07.Empty Boat com Jards Marcalé (4:06)
08.Objeto Sim, Objeto Não (5:07)
09.Pulsars E Quasars (4:57)

Exact Audio Copy V1.0 beta 1 from 15. November 2010

EAC extraction logfile from 2. July 2011, 9:24

Gal Costa / Gal Costa (Mercury #2)

Used drive : HL-DT-STDVDRAM GSA-T40N Adapter: 0 ID: 0

Read mode : Secure
Utilize accurate stream : Yes
Defeat audio cache : No
Make use of C2 pointers : Yes

Read offset correction : 667
Overread into Lead-In and Lead-Out : No
Fill up missing offset samples with silence : Yes
Delete leading and trailing silent blocks : No
Null samples used in CRC calculations : No
Used interface : Native Win32 interface for Win NT & 2000

Used output format : User Defined Encoder
Selected bitrate : 768 kBit/s
Quality : High
Add ID3 tag : No
Command line compressor : c:\\Users\\leomarco\\Contacts\\Desktop\\Exact Audio Copy\\FLAC\\FLAC.EXE
Additional command line options : -6 -V -T \"ARTIST=%a\" -T \"TITLE=%t\" -T \"ALBUM=%g\" -T \"DATE=%y\" -T \"TRACKNUMBER=%n\" -T \"GENRE=%m\" -T \"COMMENT=%e\" %j--picture=\"%i\"%j %s -o %d


TOC of the extracted CD

Track | Start | Length | Start sector | End sector
---------------------------------------------------------
1 | 0:00.00 | 3:09.10 | 0 | 14184
2 | 3:09.10 | 3:24.30 | 14185 | 29514
3 | 6:33.40 | 4:20.07 | 29515 | 49021
4 | 10:53.47 | 3:48.00 | 49022 | 66121
5 | 14:41.47 | 3:24.60 | 66122 | 81481
6 | 18:06.32 | 3:05.28 | 81482 | 95384
7 | 21:11.60 | 4:06.32 | 95385 | 113866
8 | 25:18.17 | 5:07.45 | 113867 | 136936
9 | 30:25.62 | 4:57.53 | 136937 | 159264


Range status and errors

Selected range

Filename C:\\Users\\leomarco\\Contacts\\Desktop\\Gal Costa - Gal Costa (Mercury #2).flac

Peak level 97.7 %
Extraction speed 1.7 X
Range quality 100.0 %
Test CRC E4D7F271
Copy CRC E4D7F271
Copy OK

No errors occurred

End of status report

==== Log checksum 916FBE2A6EF05F51C3CB90C552C1224C3BDF317B8382BF2581CBA5EDEEBFB923 ====

Comments on Gal Costa-Gal[EacFlacCue](TntVillage)

00 COMMENT(S) INSIDE

No comments available for this file !



Post a comment

Username
Password



Files

Filename Size
01-Track 1.flac 19.8 MB
02-Track 2.flac 20.7 MB
03-Track 3.flac 26.6 MB
04-Track 4.flac 25.3 MB
05-Track 5.flac 22.2 MB
06-Track 6.flac 20 MB
07-Track 7.flac 26.1 MB
08-Track 8.flac 33.3 MB
09-Track 9.flac 29.8 MB
folder.jpg 113 KB
G4l C0st4 - G4l.cue 1 KB
G4l C0st4 - G4l.log 4 KB

Share Gal Costa-Gal[EacFlacCue](TntVillage)

Permalink URL
Standard HREF Link Code
Link For Forums
Bookmark

Other torrents that might interest you

Music torrents: recent searches





Torrents Stats
ADDED TODAY
0 torrent(s)
TOTAL
5293237 torrents


Latest searches

Friends


RSS2



DMCA Info  |  Privacy policy  |  Contact
Copyright 2007-2015 ©SUMOTorrent. All rights reserved.

Download Gal Costa-Gal[EacFlacCue](TntVillage)Torrent