Download HomeMade.-.Young.Girl.Awesome.Blowjob Torrent

login Login create account Create account Separator English  Francais  Espanol  Italiano  Deutsch
Torrent > Miscellaneous > Unsorted > HomeMade.-.Young.Girl.Awesome.Blowjob


HomeMade.-.Young.Girl.Awesome.Blowjob


Download

Information about HomeMade.-.Young.Girl.Awesome.Blowjob

- Download torrent

Seeds 180
Peers 57
Size 163.8 MB
Date Friday, 02 September 2011 at 20:20:00
Comments 0
Category Miscellaneous Unsorted
Hash c9fb0f878913c469e914be1412249473787b33be
Reported Verified (0) - Fake (0) - Password (0) - Virus (0)
Uploader Anonymous

Description

Format : AVI Format/Info : Audio Video Interleave File size : 164 MiB Duration : 13mn 41s Overall bit rate : 1 672 Kbps Video ID : 0 Format : MPEG-4 Visual Format profile : Advanced Simple@L5 Format settings, BVOP : No Format settings, QPel : No Format settings, GMC : No warppoints Format settings, Matrix : Default (MPEG) Codec ID : XVID Codec ID/Hint : XviD Duration : 13mn 41s Bit rate : 1 473 Kbps Width : 640 pixels Height : 480 pixels Display aspect ratio : 4:3 Frame rate : 25.000 fps Color space : YUV Chroma subsampling : 4:2:0 Bit depth : 8 bits Scan type : Progressive Compression mode : Lossy Bits/(Pixel*Frame) : 0.192 Stream size : 144 MiB (88%) Writing library : XviD 1.2.1 (UTC 2008-12-04) Audio ID : 1 Format : MPEG Audio Format version : Version 1 Format profile : Layer 3 Codec ID : 55 Codec ID/Hint : MP3 Duration : 13mn 41s Bit rate mode : Constant Bit rate : 192 Kbps Channel(s) : 2 channels Sampling rate : 44.1 KHz Compression mode : Lossy Stream size : 18.8 MiB (11%) Alignment : Split accross interleaves Interleave, duration : 80 ms (2.00 video frames) Writing library : LAMELAME_MAJOR_VERSI

Comments on HomeMade.-.Young.Girl.Awesome.Blowjob

00 COMMENT(S) INSIDE

No comments available for this file !



Post a comment

Username
Password



Files

Filename Size
Home made young girl awesome blowjob and fuck.avi 163.8 MB

Share HomeMade.-.Young.Girl.Awesome.Blowjob

Permalink URL
Standard HREF Link Code
Link For Forums
Bookmark

Other torrents that might interest you

Miscellaneous torrents: recent searches



download


Torrents Stats
ADDED TODAY
11996 torrent(s)
TOTAL
5358356 torrents

Cinema News
Sponsored by VeryAware.com


Latest searches

Friends


RSS2



DMCA Info  |  Privacy policy  |  Contact
Copyright 2007-2014 ©SUMOTorrent. All rights reserved.

Download HomeMade.-.Young.Girl.Awesome.Blowjob Torrent