Download Magma - K.A [Eac Flac Cue-TNTVillage] Torrent

login Login create account Create account Separator English  Francais  Espanol  Italiano  Deutsch
Torrent > Music > Rock Progressive > Magma - K.A [Eac Flac Cue-TNTVillage]


Magma - K.A [Eac Flac Cue-TNTVillage]


Download

Information about Magma - K.A [Eac Flac Cue-TNTVillage]

- Download torrent

Seeds 193
Peers 314
Size 338.5 MB
Date Wednesday, 28 September 2011 at 15:41:35
Comments 0
Category Music Rock Progressive
Hash 7f5aee3ed957fa96958b87a574ece0742e766739
Reported Verified (0) - Fake (0) - Password (0) - Virus (0)
Uploader Anonymous

Description

Artist: Magma
Title: K.A
Genre: Zheul
Year: 2004

[ :: Tracklist :: ]
1. K.A I [11:14]
2. K.A II [37:41]
3. K.A III [48:-58]


[::Technical data::]

Encoder: EAC 1.02 b2 (Secure Mode,Accuraterip,Test & Copy)
Codec: Flac 1.2.1
Profile: 6

Eac Log

Exact Audio Copy V1.0 beta 2 from 29. April 2011

EAC extraction logfile from 1. September 2011, 22:28

Magma / K.A

Used drive : PIONEER DVD-RW DVR-108 Adapter: 1 ID: 0

Read mode : Secure
Utilize accurate stream : Yes
Defeat audio cache : Yes
Make use of C2 pointers : No

Read offset correction : 48
Overread into Lead-In and Lead-Out : No
Fill up missing offset samples with silence : Yes
Delete leading and trailing silent blocks : No
Null samples used in CRC calculations : Yes
Used interface : Native Win32 interface for Win NT & 2000
Gap handling : Appended to previous track

Used output format : User Defined Encoder
Selected bitrate : 768 kBit/s
Quality : High
Add ID3 tag : No
Command line compressor : C:\\NoUAC\\Exact Audio Copy\\FLAC\\FLAC.EXE
Additional command line options : -6 -V -T \"ARTIST=%artist%\" -T \"TITLE=%title%\"
-T \"ALBUM=%albumtitle%\" -T \"DATE=%year%\" -T \"TRACKNUMBER=%tracknr%\" -T \"GENRE=%genre%\"
-T \"COMMENT=EAC1.0b2 Secure Mode, Test & Copy, AccurateRip, FLAC 1.2.1 -6 (by Paky)\"


TOC of the extracted CD

Track | Start | Length | Start sector | End sector
---------------------------------------------------------
1 | 0:00.00 | 11:12.11 | 0 | 50410
2 | 11:12.11 | 15:53.14 | 50411 | 121899
3 | 27:05.25 | 21:43.73 | 121900 | 219697


Track 1

Filename C:\\Magma (2004) - K.A\\01 - K.A I.wav

Pre-gap length 0:00:02.00

Peak level 100.0 %
Extraction speed 1.9 X
Track quality 100.0 %
Test CRC 11AD9ED4
Copy CRC 11AD9ED4
Accurately ripped (confidence 7) [44B3912F] (AR v1)
Copy OK

Track 2

Filename C:\\Magma (2004) - K.A\\02 - K.A II.wav

Peak level 100.0 %
Extraction speed 2.4 X
Track quality 99.9 %
Test CRC 773382DE
Copy CRC 773382DE
Accurately ripped (confidence 7) [F4DDC764] (AR v1)
Copy OK

Track 3

Filename C:\\Magma (2004) - K.A\\03 - K.A III.wav

Peak level 100.0 %
Extraction speed 3.0 X
Track quality 100.0 %
Test CRC 5D9D9381
Copy CRC 5D9D9381
Accurately ripped (confidence 7) [A80549DD] (AR v1)
Copy OK


All tracks accurately ripped

No errors occurred

End of status report

==== Log checksum 5B94DB01647AA225451D8DE939A47D63C765D4E93053DE5B3DC6F78C3D883CF0 ====

Comments on Magma - K.A [Eac Flac Cue-TNTVillage]

00 COMMENT(S) INSIDE

No comments available for this file !



Post a comment

Username
Password



Files

Filename Size
03 - K.A III.flac 151.4 MB
02 - K.A II.flac 110.1 MB
01 - K.A I.flac 76.2 MB
cover 295 KB
cover 279 KB
cover 233 KB
Magma - K.A.log 5 KB
K.A.cue 509 Bytes
Magma - K.A.m3u 54 Bytes

Share Magma - K.A [Eac Flac Cue-TNTVillage]

Permalink URL
Standard HREF Link Code
Link For Forums
Bookmark

Other torrents that might interest you

Music torrents: recent searches





Torrents Stats
ADDED TODAY
0 torrent(s)
TOTAL
9355482 torrents


Latest searches

Friends


RSS2



DMCA Info  |  Privacy policy  |  Contact
Copyright 2007-2015 ©SUMOTorrent. All rights reserved.

Download Magma - K.A [Eac Flac Cue-TNTVillage] Torrent