Download La Storia siamo noi - L\'Italia di Alfredino [tvrip xvid mp3 ITA][Torrent

login Login create account Create account Separator English  Francais  Espanol  Italiano  Deutsch
Torrent > No Category > No Subcategory > La Storia siamo noi - L\'Italia di Alfredino [tvrip xvid mp3 ITA][


Verified La Storia siamo noi - L\'Italia di Alfredino [tvrip xvid mp3 ITA][


Download

Information about La Storia siamo noi - L\'Italia di Alfredino [tvrip xvid mp3 ITA][

- Download torrent

Seeds 767
Peers 35
Size 539.2 MB
Date Thursday, 20 October 2011 at 17:23:07
Comments 0
Category No Category No Subcategory
Hash 4678c22354d62e00878aacf4aabf7f7b2546281c
Reported Verified (1) - Fake (0) - Password (0) - Virus (3)
Uploader ilpuma82

Description

Le televisioni trasmettono le immagini del paese di Vermicino, nei pressi di Roma dove un bambino di 6 anni, Alfredo Rampi è caduto in un pozzo artesiano. La vicenda si trasforma immediatamente, per la prima volta in Italia, in un fenomeno mediatico in cui milioni di persone seguono in diretta tv la vicenda, trasmessa a reti unificate. la diretta piu lunga della storia, da venerdi 12 giugno a sabato 13 giugno. La polizia accorre sul luogo in serata, chiamata dai genitori e localizza il bambino. Poco dopo mezzanotte arrivano i Vigili del Fuoco. Il pozzo è largo 30 cm, profondo 80 metri. Si pensa che Alfredino si sia bloccato a 36 metri: scivolerà invece fino a
60. La vicenda di Vermicino ebbe una notevole risonanza mediatica.

General
Complete name : C:\\Users\\crashburn\\Downloads\\La Storia siamo noi - L\'Italia di

Alfredino\\LSSN - La Tragedia Di Alfredino.mpg
Format : MPEG-PS
File size : 539 MiB
Duration : 54mn 6s
Overall bit rate : 1 393 Kbps

Video
ID : 224 (0xE0)
Format : MPEG Video
Format version : Version 1
Format settings, BVOP : Yes
Format settings, Matrix : Default
Duration : 54mn 6s
Bit rate mode : Constant
Bit rate : 1 113 Kbps
Nominal bit rate : 1 130 Kbps
Width : 352 pixels
Height : 288 pixels
Display aspect ratio : 4:3
Frame rate : 25.000 fps
Resolution : 8 bits
Scan type : Progressive
Bits/(Pixel*Frame) : 0.439
Stream size : 431 MiB (80%)

Audio
ID : 192 (0xC0)
Format : MPEG Audio
Format version : Version 1
Format profile : Layer 2
Duration : 54mn 6s
Bit rate mode : Constant
Bit rate : 224 Kbps
Channel(s) : 2 channels
Sampling rate : 44.1 KHz
Video delay : 88ms
Stream size : 86.7 MiB (16%)

Comments on La Storia siamo noi - L\'Italia di Alfredino [tvrip xvid mp3 ITA][

11 COMMENT(S) INSIDE

FROM : mariawestin on Friday, 21 October 2011 at 19:53:31
Thanks.



Post a comment

Username
Password



Files

Filename Size
LSSN - La Tragedia Di Alfredino.mpg 538.9 MB

Share La Storia siamo noi - L\'Italia di Alfredino [tvrip xvid mp3 ITA][

Permalink URL
Standard HREF Link Code
Link For Forums
Bookmark

Other torrents that might interest you

No Category torrents: recent searches

 




Torrents Stats
ADDED TODAY
0 torrent(s)
TOTAL
7897411 torrents


Latest searches

Friends


RSS2



DMCA Info  |  Privacy policy  |  Contact
Copyright 2007-2015 ©SUMOTorrent. All rights reserved.

Download La Storia siamo noi - L\'Italia di Alfredino [tvrip xvid mp3 ITA][Torrent