Download La Storia siamo noi - L\'Italia di Alfredino [tvrip xvid mp3 ITA][Torrent

login Login create account Create account Separator English  Francais  Espanol  Italiano  Deutsch
Torrent > No Category > No Subcategory > La Storia siamo noi - L\'Italia di Alfredino [tvrip xvid mp3 ITA][


Verified La Storia siamo noi - L\'Italia di Alfredino [tvrip xvid mp3 ITA][


Download

Information about La Storia siamo noi - L\'Italia di Alfredino [tvrip xvid mp3 ITA][

- Download torrent

Seeds 767
Peers 35
Size 539.2 MB
Date Thursday, 20 October 2011 at 17:23:07
Comments 0
Category No Category No Subcategory
Hash 4678c22354d62e00878aacf4aabf7f7b2546281c
Reported Verified (1) - Fake (0) - Password (0) - Virus (3)
Uploader ilpuma82

Description

Le televisioni trasmettono le immagini del paese di Vermicino, nei pressi di Roma dove un bambino di 6 anni, Alfredo Rampi è caduto in un pozzo artesiano. La vicenda si trasforma immediatamente, per la prima volta in Italia, in un fenomeno mediatico in cui milioni di persone seguono in diretta tv la vicenda, trasmessa a reti unificate. la diretta piu lunga della storia, da venerdi 12 giugno a sabato 13 giugno. La polizia accorre sul luogo in serata, chiamata dai genitori e localizza il bambino. Poco dopo mezzanotte arrivano i Vigili del Fuoco. Il pozzo è largo 30 cm, profondo 80 metri. Si pensa che Alfredino si sia bloccato a 36 metri: scivolerà invece fino a
60. La vicenda di Vermicino ebbe una notevole risonanza mediatica.

General
Complete name : C:\\Users\\crashburn\\Downloads\\La Storia siamo noi - L\'Italia di

Alfredino\\LSSN - La Tragedia Di Alfredino.mpg
Format : MPEG-PS
File size : 539 MiB
Duration : 54mn 6s
Overall bit rate : 1 393 Kbps

Video
ID : 224 (0xE0)
Format : MPEG Video
Format version : Version 1
Format settings, BVOP : Yes
Format settings, Matrix : Default
Duration : 54mn 6s
Bit rate mode : Constant
Bit rate : 1 113 Kbps
Nominal bit rate : 1 130 Kbps
Width : 352 pixels
Height : 288 pixels
Display aspect ratio : 4:3
Frame rate : 25.000 fps
Resolution : 8 bits
Scan type : Progressive
Bits/(Pixel*Frame) : 0.439
Stream size : 431 MiB (80%)

Audio
ID : 192 (0xC0)
Format : MPEG Audio
Format version : Version 1
Format profile : Layer 2
Duration : 54mn 6s
Bit rate mode : Constant
Bit rate : 224 Kbps
Channel(s) : 2 channels
Sampling rate : 44.1 KHz
Video delay : 88ms
Stream size : 86.7 MiB (16%)

Comments on La Storia siamo noi - L\'Italia di Alfredino [tvrip xvid mp3 ITA][

77 COMMENT(S) INSIDE

FROM : pakagoda1977 on Thursday, 20 December 2018 at 02:54:42
The movie Avengers: Endgame in 1920x1080 was hacked and uploaded to the network full free. Copy this link: http://avengerendgame.tk
FROM : chigisen1987 on Wednesday, 19 December 2018 at 17:20:40
The movie Avengers: Endgame in 1920x1080 was hacked and uploaded to the network free. Go on site: http://avengerendgame.tk
FROM : hibireru1986 on Wednesday, 19 December 2018 at 01:26:33
Avengers: Endgame in FullHD free Go on site: http://avengerendgame.tk
FROM : pachiruka1979 on Tuesday, 18 December 2018 at 07:06:33
Watch movie Avengers: Endgame on FullHD absolutely free Go on site: http://avengerendgame.tk
FROM : yashiyomi1980 on Tuesday, 18 December 2018 at 02:24:52
Watch movie Avengers: Endgame on FullHD absolutely free Go on site: http://avengerendgame.tk
FROM : yamawaku1989 on Monday, 17 December 2018 at 21:25:06
Watch movie Avengers: Endgame in 1920x1080 absolutely free Copy this web-link: http://avengerendgame.tk
FROM : mariawestin on Friday, 21 October 2011 at 19:53:31
Thanks.



Post a comment

Username
Password



Files

Filename Size
LSSN - La Tragedia Di Alfredino.mpg 538.9 MB

Share La Storia siamo noi - L\'Italia di Alfredino [tvrip xvid mp3 ITA][

Permalink URL
Standard HREF Link Code
Link For Forums
Bookmark

Other torrents that might interest you

No Category torrents: recent searches

Warning! Use a VPN When Downloading Torrents!
Your IP Address is . Location is
Your Internet Provider and Government spy on you! HIDE your IP address!
We recommend Trust.Zone VPN to anonymize your torrenting. It is FREE!
Get VPN Now for FREE!




Torrents Stats
ADDED TODAY
0 torrent(s)
TOTAL
7221777 torrents


Latest searches

Friends


RSS2



DMCA Info  |  Privacy policy  |  Contact
Copyright 2007-2015 ©SUMOTorrent. All rights reserved.

Download La Storia siamo noi - L\'Italia di Alfredino [tvrip xvid mp3 ITA][Torrent