Download Horrid.Henry.2011.DVDRip.ANALOG Torrent

login Login create account Create account Separator English  Francais  Espanol  Italiano  Deutsch
Torrent > Miscellaneous > Unsorted > Horrid.Henry.2011.DVDRip.ANALOG


Verified Horrid.Henry.2011.DVDRip.ANALOG


Download

Information about Horrid.Henry.2011.DVDRip.ANALOG

- Download torrent

Seeds 999
Peers 1036
Size 707.9 MB
Date Saturday, 26 November 2011 at 14:12:04
Comments 0
Category Miscellaneous Unsorted
Hash 034f2c4de16471e31d4a935237241fdc23517375
Reported Verified (1) - Fake (0) - Password (0) - Virus (0)
Uploader Anonymous

Description

[center][img]http://www.britscene.com/wp-content/uploads/2011/02/British-Movie-Horrid-Henry-Poster-300x225.jpg[/img] Format : AVI Format/Info : Audio Video Interleave File size : 700 MiB Duration : 1h 29mn Overall bit rate : 1 099 Kbps Movie name : H.H.DDR.ANALOG Writing application : VirtualDubMod 1.5.4.1 (build 2178/release) VirtualDubMod build 2178/release Copyright : ANALOG Encoded by : Cooperman Video ID : 0 Format : MPEG-4 Visual Format profile : Advanced [email protected] Format settings, BVOP : 1 Format settings, QPel : No Format settings, GMC : No warppoints Format settings, Matrix : Custom Codec ID : XVID Codec ID/Hint : XviD Duration : 1h 29mn Bit rate : 980 Kbps Width : 640 pixels Height : 352 pixels Display aspect ratio : 16:9 Frame rate : 25.000 fps Color space : YUV Chroma subsampling : 4:2:0 Bit depth : 8 bits Scan type : Progressive Compression mode : Lossy Bits/(Pixel*Frame) : 0.174 Stream size : 624 MiB (89%) Writing library : XviD 64 Audio ID : 1 Format : MPEG Audio Format version : Version 1 Format profile : Layer 3 Mode : Joint stereo Mode extension : MS Stereo Codec ID : 55 Codec ID/Hint : MP3 Duration : 1h 29mn Bit rate mode : Constant Bit rate : 112 Kbps Channel(s) : 2 channels Sampling rate : 44.1 KHz Compression mode : Lossy Delay relative to video : 6ms Stream size : 71.3 MiB (10%) Alignment : Split accross interleaves Interleave, duration : 80 ms (2.00 video frames) Interleave, preload duration : 500 ms Writing library : LAME3.98r Encoding settings : -m j -V 4 -q 2 -lowpass 15.6 -b 112 Language : English Sample : Yes!check it!! thats what its for!! source file : HORRID HENRY 2011 PAL DVDR Legend-Rg THANX As humans, we perceive the world in analog. Everything we see and hear is a continuous transmission of information to our senses. [email protected] GREATINGS TO ALL THE P2P PLACES I LURK AT!! [img]http://img265.imageshack.us/img265/9127/hhddranalogavisnapshot0.jpg[/img] [img]http://img231.imageshack.us/img231/9127/hhddranalogavisnapshot0.jpg[/img] [img]http://img339.imageshack.us/img339/9127/hhddranalogavisnapshot0.jpg[/img] [img]http://img830.imageshack.us/img830/9127/hhddranalogavisnapshot0.jpg[/img]

Comments on Horrid.Henry.2011.DVDRip.ANALOG

00 COMMENT(S) INSIDE

No comments available for this file !



Post a comment

Username
Password



Files

Filename Size
H.H.DDR.ANALOG.avi_snapshot_01.14.52_[2011.11.26_14.34.53].jpg 34 KB
H.H.DDR.ANALOG.avi_snapshot_00.08.34_[2011.11.26_14.33.50].jpg 47 KB
H.H.DDR.ANALOG.avi_snapshot_00.28.51_[2011.11.26_14.35.22].jpg 31 KB
H.H.DDR.ANALOG.avi 699.6 MB
H.H.DDR.ANALOG.avi_snapshot_00.10.08_[2011.11.26_14.34.13].jpg 78 KB
H.H.DDR.ANALOG.nfo 8 KB
H.H.DDR.ANALOG.SAMPLE.avi 8.1 MB
Torrent Downloaded From ExtraTorrent.com.txt 353 Bytes

Share Horrid.Henry.2011.DVDRip.ANALOG

Permalink URL
Standard HREF Link Code
Link For Forums
Bookmark

Related torrents

Other torrents that might interest you

Miscellaneous torrents: recent searches





Torrents Stats
ADDED TODAY
0 torrent(s)
TOTAL
9355482 torrents


Latest searches

Friends


RSS2



DMCA Info  |  Privacy policy  |  Contact
Copyright 2007-2015 ©SUMOTorrent. All rights reserved.

Download Horrid.Henry.2011.DVDRip.ANALOG Torrent