Download Green Lantern (2011) DVDRip XviD-MAXTorrent

login Login create account Create account Separator English  Francais  Espanol  Italiano  Deutsch
Torrent > Movies > Action > Green Lantern (2011) DVDRip XviD-MAX


Green Lantern (2011) DVDRip XviD-MAX


Download

Information about Green Lantern (2011) DVDRip XviD-MAX

- Download torrent

Seeds 781
Peers 496
Size 686 MB
Date Monday, 05 December 2011 at 15:43:47
Comments 0
Category Movies Action
Hash d23f7e050f6e5140eb9d29f2247fa0cf311b092d
Reported Verified (0) - Fake (0) - Password (0) - Virus (0)
Uploader Anonymous

Description

Green Lantern (2011) DVDRip XviD-MAX
Format : WMV
Format/Info : Windows Media Video
Format profile : OpenDML
File size : 701 MiB
Duration : 1h 53mn
Overall bit rate : 1 521 Kbps
Writing application : VirtualDubMod 1.5.10.2 (build 2542/release)
Writing library : VirtualDubMod build 2542/release
Original source form : MAX TORRENTZ
Copyright : SIGISMUNT

Video
ID : 0
Format : MPEG-4 Visual
Format profile : AdvancedSimple@L5
Format settings, BVOP : Yes
Format settings, QPel : No
Format settings, GMC : No warppoints
Format settings, Matrix : Default (H.263)
Muxing mode : Packed bitstream
Codec ID : XVID
Codec ID/Hint : XviD
Duration : 1h 53mn
Bit rate : 1 320 Kbps
Width : 640 pixels
Height : 272 pixels
Display aspect ratio : 2.35:1
Frame rate : 23.976 fps
Resolution : 24 bits
Colorimetry : 4:2:0
Scan type : Progressive
Bits/(Pixel*Frame) : 0.316
Stream size : 701 MiB (87%)
Writing library : XviD 64

Audio
ID : 1
Format : MPEG Audio
Format version : Version 1
Format profile : Layer 3
Codec ID : 55
Codec ID/Hint : MP3
Duration : 1h 53mn
Bit rate mode : Constant
Bit rate : 192 Kbps
Channel(s) : 2 channels
Sampling rate : 48.0 KHz
Resolution : 16 bits
Stream size : 157 MiB (13%)
Alignment : Aligned on interleaves
Interleave, duration : 24 ms (0.58 video frame)
Interleave, preload duration : 192 ms
Writing library : LAME3.98r

http://www.imdb.com/title/tt1133985/

Comments on Green Lantern (2011) DVDRip XviD-MAX

00 COMMENT(S) INSIDE

No comments available for this file !



Post a comment

Username
Password



Files

Filename Size
Green Lantern (2011) DVDRip XviD-MAX.wmv 685 MB

Share Green Lantern (2011) DVDRip XviD-MAX

Permalink URL
Standard HREF Link Code
Link For Forums
Bookmark

Related torrents

Other torrents that might interest you

Movies torrents: recent searches

 




Torrents Stats
ADDED TODAY
0 torrent(s)
TOTAL
7897411 torrents


Latest searches

Friends


RSS2



DMCA Info  |  Privacy policy  |  Contact
Copyright 2007-2015 ©SUMOTorrent. All rights reserved.

Download Green Lantern (2011) DVDRip XviD-MAXTorrent