Download Project X (2012) TS2DVD (Fullvideo) DD2.0 NL Subs EE-Rel.NLTorrent

login Login create account Create account Separator English  Francais  Espanol  Italiano  Deutsch
Torrent > Movies > Comedy > Project X (2012) TS2DVD (Fullvideo) DD2.0 NL Subs EE-Rel.NL


Project X (2012) TS2DVD (Fullvideo) DD2.0 NL Subs EE-Rel.NL


Download

Information about Project X (2012) TS2DVD (Fullvideo) DD2.0 NL Subs EE-Rel.NL

- Download torrent

Seeds 538
Peers 231
Size 1 GB
Date Friday, 02 March 2012 at 18:37:10
Comments 0
Category Movies Comedy
Hash 58cd2529b9a4b8a036457875b84ae0ad47be6042
Reported Verified (0) - Fake (0) - Password (0) - Virus (0)
Uploader goril

Description

--latest--

100% working

\\\\|||/
.-.________ (o o) ________.-.
----/ \\\\_)_______) +-oooO--(_)-----------+ (_______(_/ \\\\----
( ()___) |Please seed after | (___() )
()__) | | (__()
----\\\\___()_) | download | (_()___/----
+------------Ooo------+



Project X (2012) TS2DVD (Fullvideo) DD2.0 NL Subs EE-Rel.NL.torrent
Format : AVI
Format/Info : Audio Video Interleave
Format profile : OpenDML
File size : 1.31 GiB
Duration : 1h 50mn
Overall bit rate : 1 698 Kbps
Writing application : VirtualDubMod 1.5.10.2 (build 2542/release)
Writing library : VirtualDubMod build 2542/release
Original source form : MAX TORRENTZ
Copyright : SIGISMUNT

Video
ID : 0
Format : MPEG-4 Visual
Format profile : AdvancedSimple@L5
Format settings, BVOP : Yes
Format settings, QPel : No
Format settings, GMC : No warppoints
Format settings, Matrix : Default (H.263)
Codec ID : XVID
Codec ID/Hint : XviD
Duration : 1h 50mn
Bit rate : 1 245 Kbps
Width : 720 pixels
Height : 384 pixels
Display aspect ratio : 1.875
Frame rate : 23.976 fps
Resolution : 24 bits
Colorimetry : 4:2:0
Scan type : Progressive
Bits/(Pixel*Frame) : 0.188
Stream size : 983 MiB (73%)
Writing library : XviD 1.2.1 (UTC 2008-12-04)

Audio
ID : 1
Format : AC-3
Format/Info : Audio Coding 3
Codec ID : 2000
Duration : 1h 50mn
Bit rate mode : Constant
Bit rate : 448 Kbps
Channel(s) : 6 channels
Channel positions : Front: L C R, Surround: L R, LFE
Sampling rate : 48.0 KHz
Stream size : 354 MiB (26%)
Alignment : Aligned on interleaves
Interleave, duration : 64 ms (1.53 video frames)
Interleave, preload duration : 192 ms

http://www.imdb.com/title/tt1636826/

Source: DVD (perfect a/v/sync quality,sample included)
This torrent is not seedbox supported,please seed it to the MAX

Note: We need anything you can offer as early releases,seedboxes,links,accounts,etc
please contact us on piratepedia[@]msn/gmail.com or our website torentz 3xforum ro

Project X (2012) TS2DVD (Fullvideo) DD2.0 NL Subs EE-Rel.NL.torrent Torrent Free download


How To Get Your Maxspeed (uTorrent)

Torrent Client - Preferences - Bandwidth - Number of connections - Set aprox. 500 for each
Torrent Client - Preferences - BiTorrent - Protocol Encryption - Forced
Bandwidth Allocation - High (Set download/upload limit - Unlimited)
Stop Other Active Torrents - Start downloading and wait for connections.
Enjoy and Seed for at least 1:1 ratio. Don't forget to say thanks/leave reviews.
Before downloading you should check/google search sample "release name""sample".
Greets to all actual/future p2p/scene QUALITY groups and affiliate websites.
Don't trust IMDb robot or bad ratings,always watch some trailers first.
Ignore stupid comments/fake/mislabeled/no-DVDrips/CAM/TS/RAR uploads.
Please spread this release/torrent to your friends/forums/etc.
If you need translation subs visit some subtitles sites.
Report if you see online streaming or other spam links.
Recommended movie player VLC PLAYER.

Comments on Project X (2012) TS2DVD (Fullvideo) DD2.0 NL Subs EE-Rel.NL

00 COMMENT(S) INSIDE

No comments available for this file !



Post a comment

Username
Password



Files

Filename Size
MOVIE.nfo 5 KB
Project X (2012) TS2DVD (Fullvideo) DD2.0 NL Subs EE-Rel.NL.avi 1 GB
Subs[ENG].srt 133 KB
Torrent downloaded from AhaShare.com.txt.txt 40 Bytes
Torrent downloaded from Rarbg.com.txt 22 Bytes
Torrent downloaded from Silvertorrents.me.txt.txt 45 Bytes
Torrent_downloaded_from_Extratorrent_Com.txt 42 Bytes

Share Project X (2012) TS2DVD (Fullvideo) DD2.0 NL Subs EE-Rel.NL

Permalink URL
Standard HREF Link Code
Link For Forums
Bookmark

Other torrents that might interest you

Movies torrents: recent searches



download


Torrents Stats
ADDED TODAY
7875 torrent(s)
TOTAL
4080224 torrents

Cinema News
Sponsored by VeryAware.com


Latest searches

Friends


RSS2





DMCA Info  |  Privacy policy  |  Contact
Copyright 2007-2014 ©SUMOTorrent. All rights reserved.

Download Project X (2012) TS2DVD (Fullvideo) DD2.0 NL Subs EE-Rel.NLTorrent