Download Battleship (2012).DVDScr~ AviTorrent

login Login create account Create account Separator English  Francais  Espanol  Italiano  Deutsch
Torrent > Movies > Action > Battleship (2012).DVDScr~ Avi


Battleship (2012).DVDScr~ Avi


Download

Information about Battleship (2012).DVDScr~ Avi

- Download torrent

Seeds 638
Peers 50
Size 810.5 MB
Date Saturday, 14 April 2012 at 17:01:32
Comments 0
Category Movies Action
Hash 89a4f36f5a16c1345b9a60e3800bf29d268bb94c
Reported Verified (0) - Fake (0) - Password (0) - Virus (0)
Uploader Anonymous

Description

Battleship (2012).DVDScr~ Avi
Format :AVI

Format/Info :Audio Video Interleave

Format profile :OpenDML

File size :1.30 GiB

Duration :2h 12mn

Overall bit rate :1 398 Kbps

Writers :Erich Hoeber, Jon

release Date :12 April 2012

Copyright :SIGISMUNT

http://www.imdb.com/title/tt1440129/

Video

ID :0

Format :MPEG-4 Visual

Format profile :AdvancedSimple@L5

Format settings, BVOP :Yes

Format settings, QPel :No

Format settings, GMC :No warppoints

Format settings, Matrix :Default (MPEG)

Codec ID :XVID

Codec ID/Hint :XviD

Duration :2h 12mn

Bit rate :1 009 Kbps

Width :640 pixels

Height :272 pixels

Display aspect ratio :2.35:1

Frame rate :23.976 fps

Resolution :24 bits

Colorimetry :4:2:0

Scan type :Progressive

Bits/(Pixel*Frame) :0.242

Stream size :959 MiB (72%)

Writing library :XviD 64

Audio

ID :1

Format :AC-3

Format/Info :Audio Coding 3

Codec ID :2000

Duration :2h 12mn

Bit rate mode :Constant

Bit rate :384 Kbps

Channel(s) :6 channels

Channel positions :Front: L C R, Surround: L R, LFE

Sampling rate :48.0 KHz

Stream size :365 MiB (27%)

Alignment :Aligned on interleaves

Interleave, duration :64 ms (1.53 video frames)

Interleave, preload duration :192 ms

Source :DVD (perfect a/v/sync quality,sample included,hardcoded english

subs for few original foreign parts)

A fleet of ships is forced to do battle with an armada of unknown origins in order to discover and thwart their destructive goals.

Channel positions : Front: L C R, Surround: L R, LFE
Sampling rate : 48.0 KHz
Stream size : 365 MiB (27%)
Alignment : Aligned on interleaves
Interleave, duration : 64 ms (1.53 video frames)
Interleave, preload duration : 192 ms

Source: DVD (perfect a/v/sync quality,sample included,hardcoded english
subs for few original foreign parts)
A fleet of ships is forced to do battle with an armada of unknown origins in order to discover and thwart their destructive goals.

Comments on Battleship (2012).DVDScr~ Avi

00 COMMENT(S) INSIDE

No comments available for this file !



Post a comment

Username
Password



Files

Filename Size
Battleship (2012).DVDScr.info 9.5 MB
Battleship (2012).DVDScr~ Avi.avi 795.9 MB
Sample.avi 2.9 MB
Torrent downloaded from Rarbg.com.txt 22 Bytes
Torrent downloaded from www.KAT.ph.txt 41 Bytes
battleship1.jpg 247 KB
screencaps.jpeg 1.8 MB

Share Battleship (2012).DVDScr~ Avi

Permalink URL
Standard HREF Link Code
Link For Forums
Bookmark

Other torrents that might interest you

Movies torrents: recent searches



download


Torrents Stats
ADDED TODAY
7799 torrent(s)
TOTAL
4122033 torrents

Cinema News
Sponsored by VeryAware.com


Latest searches

Friends


RSS2



DMCA Info  |  Privacy policy  |  Contact
Copyright 2007-2014 ©SUMOTorrent. All rights reserved.

Download Battleship (2012).DVDScr~ AviTorrent