Download Finding Nemo 3D (2012) DVDRip XviD-MAXTorrent

login Login create account Create account Separator English  Francais  Espanol  Italiano  Deutsch
Torrent > Movies > Action > Finding Nemo 3D (2012) DVDRip XviD-MAX


Finding Nemo 3D (2012) DVDRip XviD-MAX


Download

Information about Finding Nemo 3D (2012) DVDRip XviD-MAX

- Download torrent

Seeds 466
Peers 424
Size 784 MB
Date Wednesday, 02 May 2012 at 13:17:50
Comments 0
Category Movies Action
Hash 84cd1f0a81e8cc82835b65f376564775b06b0058
Reported Verified (0) - Fake (0) - Password (0) - Virus (0)
Uploader Anonymous

Description

Format : AVI
Format/Info : Audio Video Interleave
Format profile : OpenDML
File size : 1.42 GiB
Duration : 1h 52mn
Overall bit rate : 1 799 Kbps
Writing application : VirtualDubMod 1.5.10.2 (build 2542/release)
Writing library : VirtualDubMod build 2542/release
Original source form : MAX TORRENTZ
Copyright : SIGISMUNT

Video
ID : 0
Format : MPEG-4 Visual
Format profile : AdvancedSimple@L5
Format settings, BVOP : Yes
Format settings, QPel : No
Format settings, GMC : No warppoints
Format settings, Matrix : Custom
Codec ID : XVID
Codec ID/Hint : XviD
Duration : 1h 52mn
Bit rate : 1 603 Kbps
Width : 720 pixels
Height : 304 pixels
Display aspect ratio : 2.35:1
Frame rate : 23.976 fps
Resolution : 24 bits
Colorimetry : 4:2:0
Scan type : Progressive
Bits/(Pixel*Frame) : 0.305
Stream size : 1.26 GiB (89%)
Writing library : XviD 58

Audio
ID : 1
Format : MPEG Audio
Format version : Version 1
Format profile : Layer 3
Codec ID : 50
Codec ID/Hint : MP1
Duration : 1h 52mn
Bit rate mode : Constant
Bit rate : 192 Kbps
Channel(s) : 2 channels
Sampling rate : 48.0 KHz
Resolution : 16 bits
Stream size : 155 MiB (11%)
Alignment : Aligned on interleaves
Interleave, duration : 493 ms (11.82 video frames)
Interleave, preload duration : 216 ms

http://www.imdb.com/title/tt0816462/

Source: DVD (perfect a/v/sync quality,sample included)
This torrent is not seedbox supported,please seed it to the MAX

Note:If you have something to offer as early releases,seedboxes,links,accounts,etc
please contact us on piratepedia[@]msn/gmail.com or our website torentz 3xforum ro

Conan the Barbarian (2011) DVDRip XviD-MAX Torrent Free Download

http://thepiratebay.org/user/extremezone/0/7

How To Get Your Maxspeed (uTorrent)

Torrent Client - Preferences - Bandwidth - Number of connections - Set aprox. 500 for each
Torrent Client - Preferences - BiTorrent - Protocol Encryption - Forced
Bandwidth Allocation - High (Set download/upload limit - Unlimited)
Stop Other Active Torrents - Start downloading and wait for connections.
Enjoy and Seed for at least 1:1 ratio. Don't forget to say thanks/leave reviews.
Before downloading you should check/google search sample "release name""sample".
Greets to all actual/future p2p/scene QUALITY groups and affiliate websites.
Don't trust IMDb robot or bad ratings,always watch some trailers first.
Ignore stupid comments/fake/mislabeled/no-DVDrips/CAM/TS/RAR uploads.
Please spread this release/torrent to your friends/forums/etc.
If you need translation subs visit some subtitles sites.
Report if you see online streaming or other spam links.
Recommended movie player VLC PLAYER.

Comments on Finding Nemo 3D (2012) DVDRip XviD-MAX

00 COMMENT(S) INSIDE

No comments available for this file !



Post a comment

Username
Password



Files

Filename Size
Finding Nemo 3D (2012) DVDRip XviD-MAX.rar 783.8 MB
Read Info.txt 191 Bytes
Releases.nfo 301 Bytes
Torrent downloaded from Torrentreactor.net.txt 50 Bytes

Share Finding Nemo 3D (2012) DVDRip XviD-MAX

Permalink URL
Standard HREF Link Code
Link For Forums
Bookmark

Related torrents

Name Seeds Peers
Finding Nemo 3D (2012) DVDRip XviD-MAX 149 309

Other torrents that might interest you

Movies torrents: recent searches



download


Torrents Stats
ADDED TODAY
3398 torrent(s)
TOTAL
5689033 torrents

Cinema News
Sponsored by VeryAware.com


Latest searches

Friends


RSS2




DMCA Info  |  Privacy policy  |  Contact
Copyright 2007-2014 ©SUMOTorrent. All rights reserved.

Download Finding Nemo 3D (2012) DVDRip XviD-MAXTorrent