Download Moonrise Kingdom (2012) DVDRip XviD-MAXTorrent

login Login create account Create account Separator English  Francais  Espanol  Italiano  Deutsch
Torrent > Movies > Comedy > Moonrise Kingdom (2012) DVDRip XviD-MAX


Moonrise Kingdom (2012) DVDRip XviD-MAX


Download

Information about Moonrise Kingdom (2012) DVDRip XviD-MAX

- Download torrent

Seeds 430
Peers 150
Size 971.3 MB
Date Thursday, 24 May 2012 at 18:12:56
Comments 0
Category Movies Comedy
Hash 2ab431218694fa14abf5397ffb2139da6f52d7d9
Reported Verified (0) - Fake (0) - Password (0) - Virus (0)
Uploader rehmit32

Description

Moonrise Kingdom (2012)

Format : AVI
Format/Info : Audio Video Interleave
Format profile : OpenDML
File size : 971 MiB
Duration : 1h 49mn
Overall bit rate : 1 714 Kbps
Writing application : VirtualDubMod 1.5.10.2 (build 2542/release)
Writing library : VirtualDubMod build 2542/release
Original source form : MAX TORRENTZ

Video
ID : 0
Format : MPEG-4 Visual
Format profile : AdvancedSimple@L5
Format settings, BVOP : Yes
Format settings, QPel : No
Format settings, GMC : No warppoints
Format settings, Matrix : Default (H.263)
Codec ID : XVID
Codec ID/Hint : XviD
Duration : 1h 49mn
Bit rate : 1 325 Kbps
Width : 640 pixels
Height : 272 pixels
Display aspect ratio : 2.35:1
Frame rate : 23.976 fps
Resolution : 24 bits
Colorimetry : 4:2:0
Scan type : Progressive
Bits/(Pixel*Frame) : 0.318
Stream size : 971 MiB (77%)
Writing library : XviD 61

Audio
ID : 1
Format : AC-3
Format/Info : Audio Coding 3
Codec ID : 2000
Duration : 1h 49mn
Bit rate mode : Constant
Bit rate : 384 Kbps
Channel(s) : 6 channels
Channel positions : Front: L C R, Surround: L R, LFE
Sampling rate : 48.0 KHz
Stream size : 147 MiB (22%)
Alignment : Aligned on interleaves
Interleave, duration : 64 ms (1.54 video frames)
Interleave, preload duration : 192 ms



http://www.imdb.com/title/tt1748122/


Source: DVD (perfect a/v/sync quality+filtered audio with additional 400% volume , sample is included)

How To Get Your Maxspeed (uTorrent)

Torrent Client - Preferences - Bandwidth - Number of connections - Set aprox. 500 for each
Torrent Client - Preferences - BiTorrent - Protocol Encryption - Forced
Bandwidth Allocation - High (Set download/upload limit - Unlimited)
Stop Other Active Torrents - Start downloading and wait for connections.
Enjoy and Seed for at least 1:1 ratio. Don't forget to say thanks/leave reviews.
Before downloading you should check/google search sample "release name""sample".
Greets to all actual/future p2p/scene QUALITY groups and affiliate websites.
Don't trust IMDb robot or bad ratings,always watch some trailers first.
Ignore stupid comments/fake/mislabeled/no-DVDrips/CAM/TS/RAR uploads.
Please spread this release/torrent to your friends/forums/etc.
If you need translation subs visit some subtitles sites.
Report if you see online streaming or other spam links.
Recommended movie player VLC PLAYER.

Comments on Moonrise Kingdom (2012) DVDRip XviD-MAX

00 COMMENT(S) INSIDE

No comments available for this file !



Post a comment

Username
Password



Files

Filename Size
Moonrise Kingdom (2012) DVDRip XviD-MAX.avi 930.9 MB
Release.nfo 10 KB
Subs[ENG].srt 133 KB
Torrent downloaded from Demonoid.me.txt 46 Bytes
Torrent downloaded from Extratorrent.com.txt 40 Bytes
Torrent downloaded from Rarbg.com.txt 40 Bytes
Torrent downloaded from h33t.com.txt 32 Bytes
sample.avi 40.1 MB

Share Moonrise Kingdom (2012) DVDRip XviD-MAX

Permalink URL
Standard HREF Link Code
Link For Forums
Bookmark

Related torrents

Other torrents that might interest you

Movies torrents: recent searches



download


Torrents Stats
ADDED TODAY
7983 torrent(s)
TOTAL
4121260 torrents

Cinema News
Sponsored by VeryAware.com


Latest searches

Friends


RSS2



DMCA Info  |  Privacy policy  |  Contact
Copyright 2007-2014 ©SUMOTorrent. All rights reserved.

Download Moonrise Kingdom (2012) DVDRip XviD-MAXTorrent