Download Madagascar 3 Europe\'s Most Wanted (2012) DVDRip XviD-MAXTorrent

login Login create account Create account Separator English  Francais  Espanol  Italiano  Deutsch
Torrent > Movies > Animation > Madagascar 3 Europe\'s Most Wanted (2012) DVDRip XviD-MAX


Madagascar 3 Europe\'s Most Wanted (2012) DVDRip XviD-MAX


Download

Information about Madagascar 3 Europe\'s Most Wanted (2012) DVDRip XviD-MAX

- Download torrent

Seeds 434
Peers 301
Size 1.4 GB
Date Tuesday, 19 June 2012 at 07:18:10
Comments 0
Category Movies Animation
Hash 806e54257eba458941e95f13eabb11728dd9bbfd
Reported Verified (0) - Fake (0) - Password (0) - Virus (0)
Uploader janrey001

Description

Madagascar 3 Europe's Most Wanted (2012) DVDRip XviD-MAX
Format : AVI
Format/Info : Audio Video Interleave
Format profile : OpenDML
File size : 1.36 GiB
Duration : 93 min
Overall bit rate : 1 398 Kbps
Writing application : VirtualDubMod 1.5.10.2 (build 2542/release)
Writing library : VirtualDubMod build 2542/release
Original source form : MAX TORRENTZ
Copyright : SIGISMUNT

Video
ID : 0
Format : MPEG-4 Visual
Format profile : AdvancedSimple@L5
Format settings, BVOP : Yes
Format settings, QPel : No
Format settings, GMC : No warppoints
Format settings, Matrix : Default (MPEG)
Codec ID : XVID
Codec ID/Hint : XviD
Duration : 93 min
Bit rate : 1 009 Kbps
Width : 640 pixels
Height : 272 pixels
Display aspect ratio : 2.35:1
Frame rate : 23.976 fps
Resolution : 24 bits
Colorimetry : 4:2:0
Scan type : Progressive
Bits/(Pixel*Frame) : 0.242
Stream size : 959 MiB (72%)
Writing library : XviD 64

Audio
ID : 1
Format : AC-3
Format/Info : Audio Coding 3
Codec ID : 2000
Duration : 93 min
Bit rate mode : Constant
Bit rate : 384 Kbps
Channel(s) : 6 channels
Channel positions : Front: L C R, Surround: L R, LFE
Sampling rate : 48.0 KHz
Stream size : 365 MiB (27%)
Alignment : Aligned on interleaves
Interleave, duration : 64 ms (1.53 video frames)
Interleave, preload duration : 192 ms

Source: DVD (perfect a/v/sync quality,sample included,hardcoded english
subs for few original foreign parts)
This torrent is not seedbox supported,please seed it to the MAX

Note: We need anything you can offer as early releases,seedboxes,links,accounts,etc
please contact us on piratepedia[@]msn/gmail.com or our website torentz 3xforum ro

Madagascar 3 Europe's Most Wanted (2012) DVDRip XviD-MAX Torrent Free Download

http://www.imdb.com/title/tt1277953/

Comments on Madagascar 3 Europe\'s Most Wanted (2012) DVDRip XviD-MAX

00 COMMENT(S) INSIDE

No comments available for this file !



Post a comment

Username
Password



Files

Filename Size
MOVIE.nfo 5 KB
Madagascar 3 Europe's Most Wanted (2012) DVDRip XviD-MAX.avi 1.4 GB
Subs[ENG].srt 133 KB
Torrent downloaded from Rarbg.com.txt 22 Bytes
Torrent_downloaded_from_Extratorrent_Com.txt 42 Bytes

Share Madagascar 3 Europe\'s Most Wanted (2012) DVDRip XviD-MAX

Permalink URL
Standard HREF Link Code
Link For Forums
Bookmark

Related torrents

Other torrents that might interest you





Torrents Stats
ADDED TODAY
4115 torrent(s)
TOTAL
7000022 torrents


Latest searches

Friends


RSS2



DMCA Info  |  Privacy policy  |  Contact
Copyright 2007-2015 ©SUMOTorrent. All rights reserved.

Download Madagascar 3 Europe\'s Most Wanted (2012) DVDRip XviD-MAXTorrent