here Download Brave 2012 (Hindi) 720p HD Torrent

Download Brave 2012 (Hindi) 720p HDTorrent

login Login create account Create account Separator English  Francais  Espanol  Italiano  Deutsch
Torrent > Movies > Animation > Brave 2012 (Hindi) 720p HD


Brave 2012 (Hindi) 720p HD


Information about Brave 2012 (Hindi) 720p HD

- Download torrent

Seeds 410
Peers 27
Size 950 MB
Date Friday, 22 June 2012 at 19:42:20
Comments 0
Category Movies Animation
Hash 7534b6964a0053cbe930a92236322254cad40dcc
Reported Verified (0) - Fake (0) - Password (0) - Virus (0)
Uploader fisher32

Description

Brave (2012)

Format : AVI
Format/Info : Audio Video Interleave
Format profile : OpenDML
File size : 949 MiB
Duration : 1h 49mn
Overall bit rate : 1 714 Kbps
Writing application : VirtualDubMod 1.5.10.2 (build 2542/release)
Writing library : VirtualDubMod build 2542/release
Original source form : MAX TORRENTZ

Video
ID : 0
Format : MPEG-4 Visual
Format profile : AdvancedSimple@L5
Format settings, BVOP : Yes
Format settings, QPel : No
Format settings, GMC : No warppoints
Format settings, Matrix : Default (H.263)
Codec ID : XVID
Codec ID/Hint : XviD
Duration : 1h 49mn
Bit rate : 1 325 Kbps
Width : 640 pixels
Height : 272 pixels
Display aspect ratio : 2.35:1
Frame rate : 23.976 fps
Resolution : 24 bits
Colorimetry : 4:2:0
Scan type : Progressive
Bits/(Pixel*Frame) : 0.318
Stream size : 949 MiB (77%)
Writing library : XviD 61

Audio
ID : 1
Format : AC-3
Format/Info : Audio Coding 3
Codec ID : 2000
Duration : 1h 49mn
Bit rate mode : Constant
Bit rate : 384 Kbps
Channel(s) : 6 channels
Channel positions : Front: L C R, Surround: L R, LFE
Sampling rate : 48.0 KHz
Stream size : 147 MiB (22%)
Alignment : Aligned on interleaves
Interleave, duration : 64 ms (1.54 video frames)
Interleave, preload duration : 192 ms


http://www.imdb.com/title/tt1217209/


Source: DVD (perfect a/v/sync quality+filtered audio with additional 400% volume ,

sample is included)

How To Get Your Maxspeed (uTorrent)

Torrent Client - Preferences - Bandwidth - Number of connections - Set aprox. 500 for

each
Torrent Client - Preferences - BiTorrent - Protocol Encryption - Forced
Bandwidth Allocation - High (Set download/upload limit - Unlimited)
Stop Other Active Torrents - Start downloading and wait for connections.
Enjoy and Seed for at least 1:1 ratio. Don't forget to say thanks/leave reviews.
Before downloading you should check/google search sample "release name""sample".
Greets to all actual/future p2p/scene QUALITY groups and affiliate websites.
Don't trust IMDb robot or bad ratings,always watch some trailers first.
Ignore stupid comments/fake/mislabeled/no-DVDrips/CAM/TS/RAR uploads.
Please spread this release/torrent to your friends/forums/etc.
If you need translation subs visit some subtitles sites.
Report if you see online streaming or other spam links.
Recommended movie player VLC PLAYER.

Comments on Brave 2012 (Hindi) 720p HD

00 COMMENT(S) INSIDE

No comments available for this file !



Post a comment

Username
Password



Files

Filename Size
Brave 2012 (Hindi) 720p HD.avi 907.9 MB
Subs[ENG].srt 133 KB
Torrent downloaded from Demoniod.me.txt 42 Bytes
Torrent downloaded from Rarbg.com.txt 40 Bytes
Torrent downloaded from h33t.com.txt 35 Bytes
Torrent downloaded from www.KAT.ph.txt 41 Bytes
release.nfo 5 KB
sample.avi 41.8 MB

Share Brave 2012 (Hindi) 720p HD

Permalink URL
Standard HREF Link Code
Link For Forums
Bookmark

Other torrents that might interest you

Movies torrents: recent searches



www.usenet.nl


Torrents Stats
ADDED TODAY
7875 torrent(s)
TOTAL
4080224 torrents

Cinema News
Sponsored by VeryAware.com


Latest searches

Friends


RSS2



DMCA Info  |  Privacy policy  |  Contact
Copyright 2007-2014 ©SUMOTorrent. All rights reserved.

Download Brave 2012 (Hindi) 720p HDTorrent