Download The Dark Knight Rises.2012.XViD.EUTorrent

login Login create account Create account Separator English  Francais  Espanol  Italiano  Deutsch
Torrent > Movies > Fantasy > The Dark Knight Rises.2012.XViD.EU


The Dark Knight Rises.2012.XViD.EU


Download

Information about The Dark Knight Rises.2012.XViD.EU

- Download torrent

Seeds 388
Peers 470
Size 740.7 MB
Date Monday, 02 July 2012 at 18:39:00
Comments 0
Category Movies Fantasy
Hash 6490136ed6ee37188d11b15ac3e7be454430864e
Reported Verified (0) - Fake (0) - Password (0) - Virus (0)
Uploader quentin434

Description

The Dark Knight Rises (2012)



Format : WMV
Format/Info : Audio Video Interleave
Format profile : OpenDML
Duration : 2h 12mn
Overall bit rate : 1 398 Kbps
Writing application : VirtualDubMod 1.5.10.2 (build 2542/release)
Writing library : VirtualDubMod build 2542/release
Original source form : MAX TORRENTZ
Copyright : SIGISMUNT

Video
ID : 0
Format : MPEG-4 Visual
Format profile : [email protected]
Format settings, BVOP : Yes
Format settings, QPel : No
Format settings, GMC : No warppoints
Format settings, Matrix : Default (MPEG)
Codec ID : XVID
Codec ID/Hint : XviD
Duration : 2h 12mn
Bit rate : 1 009 Kbps
Width : 640 pixels
Height : 272 pixels
Display aspect ratio : 2.35:1
Frame rate : 23.976 fps
Resolution : 24 bits
Colorimetry : 4:2:0
Scan type : Progressive
Bits/(Pixel*Frame) : 0.242
Stream size : 721 MiB (72%)
Writing library : XviD 64

Audio
ID : 1
Format : AC-3
Format/Info : Audio Coding 3
Codec ID : 2000
Duration : 2h 12mn
Bit rate mode : Constant
Bit rate : 384 Kbps
Channel(s) : 6 channels
Channel positions : Front: L C R, Surround: L R, LFE
Sampling rate : 48.0 KHz
Stream size : 365 MiB (27%)
Alignment : Aligned on interleaves
Interleave, duration : 64 ms (1.53 video frames)
Interleave, preload duration : 192 ms

Source: DVD (perfect a/v/sync quality,sample included,hardcoded english
subs for few original foreign parts)
This torrent is not seedbox supported,please seed it to the MAX

NOTE

BE AWARE OF BOGUS SITES , FAKE FILES AND
STUPID SPAMMERS DOWNLOAD ALWAYS YOUR MAX DATA FROM OUR SITE

Recommended player for all our movies

REMEMBER: GOD DEMANDS LOVE,SEEDS,PEERS AND A FAIR TORRENT RATIO

Comments on The Dark Knight Rises.2012.XViD.EU

00 COMMENT(S) INSIDE

No comments available for this file !



Post a comment

Username
Password



Files

Filename Size
The Dark Knight Rises - 2012.rar 721 MB
The Dark Knight Rises_ Official Teaser Trailer.mp4 17.1 MB
the-dark-knight-rises.jpg 362 KB
Movie screenshots 270 KB
Movie screenshots 172 KB
Movie screenshots 164 KB
Movie screenshots 152 KB
Movie screenshots 143 KB
Movie screenshots 128 KB
Movie screenshots 111 KB
Movie screenshots 86 KB
Movie info.txt 608 Bytes
read this first!.txt 271 Bytes

Share The Dark Knight Rises.2012.XViD.EU

Permalink URL
Standard HREF Link Code
Link For Forums
Bookmark

Other torrents that might interest you

Movies torrents: recent searches





Torrents Stats
ADDED TODAY
0 torrent(s)
TOTAL
5293237 torrents


Latest searches

Friends


RSS2



DMCA Info  |  Privacy policy  |  Contact
Copyright 2007-2015 ©SUMOTorrent. All rights reserved.

Download The Dark Knight Rises.2012.XViD.EUTorrent