Download Maatran.2012.DVDrip.XviDTorrent

login Login create account Create account Separator English  Francais  Espanol  Italiano  Deutsch
Torrent > Movies > Indian > Maatran.2012.DVDrip.XviD


Maatran.2012.DVDrip.XviD


Download

Information about Maatran.2012.DVDrip.XviD

- Download torrent

Seeds 838
Peers 94
Size 721.1 MB
Date Monday, 09 July 2012 at 19:25:58
Comments 0
Category Movies Indian
Hash 61cf6cc3ecc39ad7a58c6a78902c7f8bb3167e82
Reported Verified (0) - Fake (0) - Password (0) - Virus (0)
Uploader Anonymous

Description




Format : AVI
Format/Info : Audio Video Interleave
Format profile : OpenDML
Overall bit rate : 1 800 Kbps
Writing application : VirtualDubMod 1.5.10.2 (build 2542/release)
Writing library : VirtualDubMod build 2542/release

[b]Video[/b]
Format : MPEG-4 Visual
Format settings, BVOP : Yes
Format settings, QPel : No
Format settings, Matrix : Default (MPEG)
Codec ID : XVID
Codec ID/Hint : XviD
Bit rate : 1 411 Kbps
Width : 640 pixels
Height : 272 pixels
Display aspect ratio : 2.35:1
Frame rate : 23.976 fps
Resolution : 24 bits
Colorimetry : 4:2:0
Scan type : Progressive
Bits/(Pixel*Frame) : 0.338
Stream size : 1.03 GiB (78%)

[b]Audio[/b]
Format : AC-3
Format/Info : Audio Coding 3
Codec ID : 2000
Bit rate mode : Constant
Bit rate : 384 Kbps
Channel(s) : 6 channels
Channel positions : Front: L C R, Surround: L R, LFE
Sampling rate : 48.0 KHz
Stream size : 287 MiB (21%)
Alignment : Aligned on interleaves
Interleave, duration : 64 ms (1.53 video frames)
Interleave, preload duration : 192 ms

Comments on Maatran.2012.DVDrip.XviD

00 COMMENT(S) INSIDE

No comments available for this file !



Post a comment

Username
Password



Files

Filename Size
Torrent Downloaded From downloadhindimovies.in.txt 478 Bytes
Torrent downloaded from h33t.com.txt 478 Bytes
Dmt Nfo.txt 477 Bytes
Maatran.2012.DVDrip.XviD.nfo 1 MB
Maatran.2012.DVDrip.XviD.avi 10 MB
Maatran.2012.DVDrip.XviD.jpeg 1 MB
Maatran.2012.DVDrip.XviD 708.9 MB

Share Maatran.2012.DVDrip.XviD

Permalink URL
Standard HREF Link Code
Link For Forums
Bookmark

Other torrents that might interest you

Movies torrents: recent searches



download


Torrents Stats
ADDED TODAY
2491 torrent(s)
TOTAL
5678323 torrents

Cinema News
Sponsored by VeryAware.com


Latest searches

Friends


RSS2




DMCA Info  |  Privacy policy  |  Contact
Copyright 2007-2014 ©SUMOTorrent. All rights reserved.

Download Maatran.2012.DVDrip.XviDTorrent