Download Tito El Bambino - Dame La Ola (h264/mp4) Torrent

login Login create account Create account Separator English  Francais  Espanol  Italiano  Deutsch
Torrent > Miscellaneous > Unsorted > Tito El Bambino - Dame La Ola (h264/mp4)


Tito El Bambino - Dame La Ola (h264/mp4)


Information about Tito El Bambino - Dame La Ola (h264/mp4)

- Download torrent

Seeds 4
Peers 2
Size 38.6 MB
Date Monday, 06 August 2012 at 04:02:19
Comments 0
Category Miscellaneous Unsorted
Hash d443d333422e8a2b7b99f90b43dc4ba3ddb51f0f
Reported Verified (0) - Fake (0) - Password (0) - Virus (0)
Uploader Anonymous

Description

General Format : MPEG-4 Format profile : Base Media Codec ID : isom File size : 38.6 MiB Duration : 3mn 6s Overall bit rate mode : Variable Overall bit rate : 1 738 Kbps Encoded date : UTC 2012-08-03 16:11:23 Tagged date : UTC 2012-08-03 16:11:23 Video ID : 1 Format : AVC Format/Info : Advanced Video Codec Format profile : High@L3.0 Format settings, CABAC : Yes Format settings, ReFrames : 2 frames Codec ID : avc1 Codec ID/Info : Advanced Video Coding Duration : 3mn 6s Bit rate : 1 506 Kbps Maximum bit rate : 3 343 Kbps Width : 720 pixels Height : 480 pixels Display aspect ratio : 16:9 Original display aspect ratio : 16:9 Frame rate mode : Constant Frame rate : 23.976 fps Standard : NTSC Color space : YUV Chroma subsampling : 4:2:0 Bit depth : 8 bits Scan type : Progressive Bits/(Pixel*Frame) : 0.182 Stream size : 34.3 MiB (89%) Audio ID : 2 Format : AAC Format/Info : Advanced Audio Codec Format profile : LC Codec ID : 40 Duration : 3mn 6s Bit rate mode : Variable Bit rate : 192 Kbps Maximum bit rate : 221 Kbps Channel(s) : 2 channels Channel positions : Front: L R Sampling rate : 44.1 KHz Compression mode : Lossy Delay relative to video : -833ms Stream size : 4.21 MiB (11%)

Comments on Tito El Bambino - Dame La Ola (h264/mp4)

00 COMMENT(S) INSIDE

No comments available for this file !



Post a comment

Username
Password



Files

Filename Size
Bytes

Share Tito El Bambino - Dame La Ola (h264/mp4)

Permalink URL
Standard HREF Link Code
Link For Forums
Bookmark

Other torrents that might interest you

Miscellaneous torrents: recent searches



www.usenet.nl


Torrents Stats
ADDED TODAY
1592 torrent(s)
TOTAL
4177545 torrents

Cinema News


Latest searches

Friends


RSS2



DMCA Info  |  Privacy policy  |  Contact  | 
Copyright 2007-2013 ©SUMOTorrent. All rights reserved.

Download Tito El Bambino - Dame La Ola (h264/mp4) Torrent