Download The Campaign (2012) DVDRip XviD-MAXTorrent

login Login create account Create account Separator English  Francais  Espanol  Italiano  Deutsch
Torrent > Movies > Comedy > The Campaign (2012) DVDRip XviD-MAX


The Campaign (2012) DVDRip XviD-MAX


Information about The Campaign (2012) DVDRip XviD-MAX

- Download torrent

Seeds 72
Peers 225
Size 895 MB
Date Monday, 13 August 2012 at 10:14:18
Comments 0
Category Movies Comedy
Hash 81bd12373311df1973c8e671a8a93bb91d332a16
Reported Verified (0) - Fake (0) - Password (0) - Virus (0)
Uploader Anonymous

Description

The Campaign (2012) DVDRip XviD-MAX

Format : AVI
Format/Info : Audio Video Interleave
Format profile : OpenDML
Duration : 110 minutes
Overall bit rate : 1 206 Kbps
Writing application : VirtualDubMod 1.5.10.2 (build 2542/release)
Writing library : VirtualDubMod build 2542/release
Original source form : MAX TORRENTZ
Copyright : SIGISMUNT

Video
ID : 0
Format : MPEG-4 Visual
Format profile : AdvancedSimple@L5
Format settings, BVOP : Yes
Format settings, QPel : No
Format settings, GMC : No warppoints
Format settings, Matrix : Default (H.263)
Muxing mode : Packed bitstream
Codec ID : XVID
Codec ID/Hint : XviD
Duration : 110 minutes
Bit rate : 1 010 Kbps
Width : 640 pixels
Height : 272 pixels
Display aspect ratio : 2.35:1
Frame rate : 23.976 fps
Resolution : 24 bits
Colorimetry : 4:2:0
Scan type : Progressive
Bits/(Pixel*Frame) : 0.242
Stream size : 962 MiB (84%)
Writing library : XviD 57

Audio
ID : 1
Format : MPEG Audio
Format version : Version 1
Format profile : Layer 3
Codec ID : 55
Codec ID/Hint : MP3
Duration : 110 minutes
Bit rate mode : Constant
Bit rate : 192 Kbps
Channel(s) : 2 channels
Sampling rate : 48.0 KHz
Resolution : 16 bits
Stream size : 183 MiB (16%)
Alignment : Aligned on interleaves
Interleave, duration : 712 ms (17.08 video frames)
Interleave, preload duration : 216 ms
Writing library : LAME3.98.2

Source: DVD (perfect a/v/sync quality+filtered audio with additional 400% volume , sample is included)

The Campaign (2012) DVDRip XviD-MAX Free Download

Torrent Client - Preferences - Bandwidth - Number of connections - Set aprox. 500 for each
Torrent Client - Preferences - BiTorrent - Protocol Encryption - Forced
Bandwidth Allocation - High (Set download/upload limit - Unlimited)
Stop Other Active Torrents - Start downloading and wait for connections.
Enjoy and Seed for at least 1:1 ratio. Don't forget to say thanks/leave reviews.
Before downloading you should check/google search sample "release name""sample".
Greets to all actual/future p2p/scene QUALITY groups and affiliate websites.
Don't trust IMDb robot or bad ratings,always watch some trailers first.
Please spread this release/torrent to your friends/forums/etc.
If you need translation subs visit some subtitles sites.
Report if you see online streaming or other spam links.
Recommended movie player VLC PLAYER. Torrent Free Download

Comments on The Campaign (2012) DVDRip XviD-MAX

00 COMMENT(S) INSIDE

No comments available for this file !



Post a comment

Username
Password



Files

Filename Size
Screenshots.png 1.3 MB
Subs[ENG].srt 133 KB
The Campaign (2012) DVDRip XviD-MAX.avi 853.9 MB
The Campaign 2012.nfo 3 KB
The Campaign.mp4 39.5 MB
Torrent Downloaded From ExtraTorrent.com.txt 353 Bytes

Share The Campaign (2012) DVDRip XviD-MAX

Permalink URL
Standard HREF Link Code
Link For Forums
Bookmark

Related torrents

Other torrents that might interest you

Movies torrents: recent searches





Torrents Stats
ADDED TODAY
21945 torrent(s)
TOTAL
4084938 torrents

Cinema News


Latest searches

Friends


RSS2




DMCA Info  |  Privacy policy  |  Contact
Copyright 2007-2014 ©SUMOTorrent. All rights reserved.

Download The Campaign (2012) DVDRip XviD-MAXTorrent