Download American Reunion (American Pie 8) (2012) DVDRip XViD -DiAMOND Torrent

login Login create account Create account Separator English  Francais  Espanol  Italiano  Deutsch
Torrent > Movies > DVD Film Extras > American Reunion (American Pie 8) (2012) DVDRip XViD -DiAMOND


American Reunion (American Pie 8) (2012) DVDRip XViD -DiAMOND


Download

Information about American Reunion (American Pie 8) (2012) DVDRip XViD -DiAMOND

- Download torrent

Seeds 13672
Peers 2095
Size 707.7 MB
Date Saturday, 25 August 2012 at 05:57:10
Comments 0
Category Movies DVD Film Extras
Hash f61d47fa6d6798664584dfa639eacfcca84bf9f1
Reported Verified (0) - Fake (0) - Password (0) - Virus (0)
Uploader Anonymous

Description

------------------------------------------------------------------- Please share....Dont hit and run...Seed it back at least once. Of course, if you want to seed it back more than once, that would be ok too :) ------------------------------------------------------------------- QUALITY: PERFECT 10/10 All details are here: Format | AVI Language | ENGLISH Source | DVD PAL Subs | NONE QUALITY: PERFECT 10/10 - Video ID : 0 Format : MPEG-4 Visual Format profile : Advanced Simple@L5 Format settings, BVOP : Yes Format settings, QPel : No Format settings, GMC : No warppoints Format settings, Matrix : Default (H.263) Muxing mode : Packed bitstream Codec ID : XVID Codec ID/Hint : XviD Bit rate : 1 345 Kbps Width : 720 pixels Height : 314 pixels Display aspect ratio : 2.25:1 Frame rate : 29.970 fps Color space : YUV Chroma subsampling : 4:2:0 Bit depth : 8 bits Scan type : Progressive Compression mode : Lossy Bits/(Pixel*Frame) : 0.198 Stream size : 1.19 GiB (87%) Writing library : XviD 1.1.0 (UTC 2005-11-22) - Audio ID : 1 Format : AC-3 Format/Info : Audio Coding 3 Mode extension : CM (complete main) Codec ID : 2000 Bit rate mode : Constant Bit rate : 192 Kbps Channel(s) : 2 channels Channel positions : Front: L R Sampling rate : 48.0 KHz Bit depth : 16 bits Compression mode : Lossy Stream size : 175 MiB (12%) Alignment : Aligned on interleaves Interleave, duration : 33 ms (1.00 video frame) Interleave, preload duration : 512 ms

Comments on American Reunion (American Pie 8) (2012) DVDRip XViD -DiAMOND

00 COMMENT(S) INSIDE

No comments available for this file !



Post a comment

Username
Password



Files

Filename Size
American Reunion (American Pie 8) (2012) DVDRip XViD-DiAMOND.rar 707.7 MB

Share American Reunion (American Pie 8) (2012) DVDRip XViD -DiAMOND

Permalink URL
Standard HREF Link Code
Link For Forums
Bookmark

Related torrents

Other torrents that might interest you

Movies torrents: recent searches



download


Torrents Stats
ADDED TODAY
5252 torrent(s)
TOTAL
5336796 torrents

Cinema News
Sponsored by VeryAware.com


Latest searches

Friends


RSS2



DMCA Info  |  Privacy policy  |  Contact
Copyright 2007-2014 ©SUMOTorrent. All rights reserved.

Download American Reunion (American Pie 8) (2012) DVDRip XViD -DiAMOND Torrent