Download ParaNorman (2012) R3 HDRiP XviD RESiSTANCETorrent

login Login create account Create account Separator English  Francais  Espanol  Italiano  Deutsch
Torrent > Movies > Animation > ParaNorman (2012) R3 HDRiP XviD RESiSTANCE


ParaNorman (2012) R3 HDRiP XviD RESiSTANCE


Information about ParaNorman (2012) R3 HDRiP XviD RESiSTANCE

- Download torrent

Seeds 730
Peers 235
Size 901.2 MB
Date Sunday, 26 August 2012 at 07:12:44
Comments 0
Category Movies Animation
Hash fd33c5e82d8d3434c8482d3fd3599772638128c3
Reported Verified (0) - Fake (0) - Password (0) - Virus (0)
Uploader godblak01

Description

Plot:

A misunderstood boy, takes on ghosts, zombies and grown-ups to save his town from a centuries-old curse.


Note: We need anything you can offer as early releases,seedboxes,links,accounts,etc
please contact us on piratepedia[@]msn/gmail.com or our website torentz 3xforum ro
Seed Stats: 20-400 GiB at aprox 10 MiB/sec/20 slots per torrent.


ParaNorman (2012) Torrent Free Download
Format : AVI
Format/Info : Audio Video Interleave
Format profile : OpenDML
Format settings : rec
Duration : 93 min
Overall bit rate : 1 293 Kbps
Writing application : VirtualDubMod 1.5.10.2 (build 2542/release)
Writing library : VirtualDubMod build 2542/release
Original source form : MAX TORRENTZ
Copyright : SIGISMUNT

Video
ID : 0
Format : MPEG-4 Visual
Format profile : Advanced Simple@L5
Format settings, BVOP : 2
Format settings, QPel : No
Format settings, GMC : No warppoints
Format settings, Matrix : Default (H.263)
Codec ID : XVID
Codec ID/Hint : XviD
Duration : 93 min
Bit rate : 904 Kbps
Width : 624 pixels
Height : 256 pixels
Display aspect ratio : 2.40:1
Frame rate : 23.976 fps
Color space : YUV
Chroma subsampling : 4:2:0
Bit depth : 8 bits
Scan type : Progressive
Compression mode : Lossy
Bits/(Pixel*Frame) : 0.236
Stream size : 931 MiB (70%)
Writing library : XviD 1.2.1 (UTC 2008-12-04)

Audio
ID : 1
Format : AC-3
Format/Info : Audio Coding 3
Mode extension : CM (complete main)
Format settings, Endianness : Big
Codec ID : 2012
Duration : 93 min
Bit rate mode : Constant
Bit rate : 384 Kbps
Channel(s) : 6 channels
Channel positions : Front: L C R, Side: L R, LFE
Sampling rate : 48.0 KHz
Bit depth : 16 bits
Compression mode : Lossy
Stream size : 396 MiB (30%)
Alignment : Aligned on interleaves
Interleave, duration : 64 ms (1.53 video frames)
Interleave, preload duration : 192 ms


Source: DVD (perfect a/v/sync quality,sample included)
This torrent is not seedbox supported,please seed it to the MAX

IMDB link: http://www.imdb.com/title/tt1623288/

How To Get Your Maxspeed (uTorrent)

Torrent Client - Preferences - Bandwidth - Number of connections - Set aprox. 500 for each
Torrent Client - Preferences - BiTorrent - Protocol Encryption - Forced
Bandwidth Allocation - High (Set download/upload limit - Unlimited)
Stop Other Active Torrents - Start downloading and wait for connections.
Enjoy and Seed for at least 1:1 ratio. Don't forget to say thanks/leave reviews.
Before downloading you should check/google search sample "release name""sample".
Greets to all actual/future p2p/scene QUALITY groups and affiliate websites.
Don't trust IMDb robot or bad ratings,always watch some trailers first.
Ignore stupid comments/fake/mislabeled/no-DVDrips/CAM/TS/RAR uploads.
Please spread this release/torrent to your friends/forums/etc.
If you need translation subs visit some subtitles sites.
Report if you see online streaming or other spam links.
Recommended movie player VLC PLAYER.

Comments on ParaNorman (2012) R3 HDRiP XviD RESiSTANCE

11 COMMENT(S) INSIDE

FROM : thefather_ge_x on Friday, 31 August 2012 at 21:56:41
Fake!



Post a comment

Username
Password



Files

Filename Size
MOVIE.nfo 5 KB
ParaNorman (2012) R3 HDRiP XviD RESiSTANCE.avi 900.9 MB
Subs[ENG].srt 133 KB
Torrent downloaded from Rarbg.com.txt 22 Bytes
Torrent downloaded from www.KAT.ph.txt 41 Bytes
Torrent_downloaded_from_Extratorrent_Com.txt 42 Bytes

Share ParaNorman (2012) R3 HDRiP XviD RESiSTANCE

Permalink URL
Standard HREF Link Code
Link For Forums
Bookmark

Other torrents that might interest you

Movies torrents: recent searches



www.usenet.nl


Torrents Stats
ADDED TODAY
284 torrent(s)
TOTAL
4153582 torrents

Cinema News


Latest searches

Friends


RSS2



DMCA Info  |  Privacy policy  |  Contact  | 
Copyright 2007-2013 ©SUMOTorrent. All rights reserved.

Download ParaNorman (2012) R3 HDRiP XviD RESiSTANCETorrent