Download Cowboys and Aliens (2011) DVDRip XviD-MAX Torrent

login Login create account Create account Separator English  Francais  Espanol  Italiano  Deutsch
Torrent > Miscellaneous > Unsorted > Cowboys and Aliens (2011) DVDRip XviD-MAX

Recommended FREE Download, Click Here
Removed at the request of copyright owner
Removed at the request of copyright owner

Verified Cowboys and Aliens (2011) DVDRip XviD-MAX


Information about Cowboys and Aliens (2011) DVDRip XviD-MAX

- Download torrent

Seeds 192987
Peers 667136
Size 1.2 GB
Date Wednesday, 31 December 1969 at 19:33:31
Comments 0
Category Miscellaneous Unsorted
Hash 5c077c605b478d7f3ace34da4879d7c6c274810a
Reported Verified (6) - Fake (0) - Password (0) - Virus (0)
Uploader Anonymous

Comments on Cowboys and Aliens (2011) DVDRip XviD-MAX


FROM : tshah on Sunday, 24 May 2015 at 16:59:27
Free Download Your Favourite English & Hindi Movies.Now free HD quality movies on here.You can also find out your favourite TV shows.. Visit:
FROM : estecool on Friday, 17 February 2012 at 21:15:02
guyz do u want to earn money wid internet most trusted and legit site then follow da step as below 1. go in this site 2.register there 3after registration login to the sites 4 go to view advertisements tab and view all fixed advertisement one by one ( click the first fixed advertisement and wait for 1 min and when it says credited then only go to next one and so on). 5 be active in the site everyday for 5 earning atleast dollar 1200 each month while professional r earning 3000-4000 each month. this is a free sites to join.the sites has over 2000000 members and the best part is it has paid every members n none has been scamed till was formed on 2005. u can check its legitimacy in google. enjoy the easy way of earning money online .REMEMBER U NEED TO BE ACTIVE EVERYDAY FOR ONLY 5 MINUTES TO HAVE good EARNINGS. IF U HAVE ANY PROBLEM U CAN ADDME IN FACEBOOK WITH A NAME jessica yangem , I"LL ALWAYS THERE TO HELP U TOO ACHIEVE UR DREAM TO EARN MONEY ONLINE THNX. If u want to see my payments proofs , u can see all my payments proofs in facebook photos
FROM : kingtibaba on Monday, 12 December 2011 at 17:37:06
FROM : Mystique0012 on Sunday, 20 November 2011 at 22:06:34
Screens: Alternative: Code ScreenCaps: Code A spaceship arrives in Arizona, 1873, to take over the Earth, starting with the Wild West region. A posse of cowboys and natives are all that stand in their way. Code Cowboys and Aliens (2011) DVDRip XviD-MAXSPEED Format : AVI Format/Info : Audio Video Interleave Format profile : OpenDML File size : 1.15 GiB Duration : 1h 58mn Overall bit rate : 1 390 Kbps Writing application : VirtualDubMod (build 2542/release) Writing library : VirtualDubMod build 2542/release Original source form : MAX TORRENTZ Copyright : SIGISMUNT Video ID : 0 Format : MPEG-4 Visual Format profile : AdvancedSimple@L5 Format settings, BVOP : Yes Format settings, QPel : No Format settings, GMC : No warppoints Format settings, Matrix : Default (MPEG) Codec ID : XVID Codec ID/Hint : XviD Duration : 1h 58mn Bit rate : 1 189 Kbps Width : 640 pixels Height : 272 pixels Display aspect ratio : 2.35:1 Frame rate : 23.976 fps Resolution : 24 bits Colorimetry : 4:2:0 Scan type : Progressive Bits/(Pixel*Frame) : 0.285 Stream size : 1 008 MiB (86%) Writing library : XviD 1.2.1 (UTC 2008-12-04) Audio ID : 1 Format : MPEG Audio Format version : Version 1 Format profile : Layer 3 Codec ID : 55 Codec ID/Hint : MP3 Duration : 1h 58mn Bit rate mode : Constant Bit rate : 192 Kbps Channel(s) : 2 channels Sampling rate : 48.0 KHz Resolution : 16 bits Stream size : 163 MiB (14%) Alignment : Aligned on interleaves Interleave, duration : 24 ms (0.58 video frame) Interleave, preload duration : 384 ms Writing library : LAME3.96.1 Source: DVD (perfect a/v/sync quality,sample included) This torrent is not seedbox supported,please seed it to the MAX Note:If you have something to offer as early releases,seedboxes,links,accounts,etc please contact us on piratepedia[@]msn/ or our website torentz 3xforum ro How To Get Your Maxspeed (uTorrent) Torrent Client - Preferences - Bandwidth - Number of connections - Set aprox. 500 for each Torrent Client - Preferences - BiTorrent - Protocol Encryption - Forced Bandwidth Allocation - High (Set download/upload limit - Unlimited) Stop Other Active Torrents - Start downloading and wait for connections. Enjoy and Seed for at least 1:1 ratio. Don't forget to say thanks/leave reviews. Before downloading you should check/google search sample "release name""sample". Greets to all actual/future p2p/scene QUALITY groups and

Post a comment



Filename Size

Share Cowboys and Aliens (2011) DVDRip XviD-MAX

Permalink URL
Standard HREF Link Code
Link For Forums

Related torrents

Other torrents that might interest you

Miscellaneous torrents: recent searches


Torrents Stats
37 torrent(s)
6584398 torrents

Latest searches



DMCA Info  |  Privacy policy  |  Contact
Copyright 2007-2015 ©SUMOTorrent. All rights reserved.

Download Cowboys and Aliens (2011) DVDRip XviD-MAX Torrent