Download Frankenweenie 2012 DVDRip XviD-SPARKTorrent

login Login create account Create account Separator English  Francais  Espanol  Italiano  Deutsch
Torrent > Movies > Animation > Frankenweenie 2012 DVDRip XviD-SPARK


Frankenweenie 2012 DVDRip XviD-SPARK


Information about Frankenweenie 2012 DVDRip XviD-SPARK

- Download torrent

Seeds 53
Peers 7
Size 711.5 MB
Date Wednesday, 10 October 2012 at 03:05:24
Comments 0
Category Movies Animation
Hash 555ffa3299d70dcc4340ac35f99d3f459df4fa9a
Reported Verified (0) - Fake (0) - Password (0) - Virus (0)
Uploader Anonymous

Description





Format/Info : Audio Video Interleave
File size : 708 MiB
Duration : 1h 26mn
Overall bit rate : 1 052 Kbps
Writing library : VirtualDub build 30091/release

Video
ID : 0
Format : MPEG-4 Visual
Format profile : Advanced Simple@L5
Format settings, BVOP : 2
Format settings, QPel : No
Format settings, GMC : No warppoints
Format settings, Matrix : Default (H.263)
Codec ID : XVID
Codec ID/Hint : XviD
Duration : 1h 26mn
Bit rate : 658 Kbps
Width : 720 pixels
Height : 304 pixels
Display aspect ratio : 2.35:1
Frame rate : 25.000 fps
Color space : YUV
Chroma subsampling : 4:2:0
Bit depth : 8 bits
Scan type : Progressive
Compression mode : Lossy
Bits/(Pixel*Frame) : 0.120
Stream size : 405 MiB (63%)
Writing library : XviD 1.2.1 (UTC 2008-12-04)

Audio
ID : 1
Format : AC-3
Format/Info : Audio Coding 3
Mode extension : CM (complete main)
Codec ID : 2000
Duration : 1h 26mn
Bit rate mode : Constant
Bit rate : 384 Kbps
Channel(s) : 6 channels
Channel positions : Front: L C R, Side: L R, LFE
Sampling rate : 48.0 KHz
Bit depth : 16 bits
Compression mode : Lossy
Stream size : 236 MiB (37%)
Alignment : Aligned on interleaves
Interleave, duration : 40 ms (1.00 video frame)
Interleave, preload duration : 512 ms







Format/Info : Audio Video Interleave
File size : 708 MiB
Duration : 1h 26mn
Overall bit rate : 1 052 Kbps
Writing library : VirtualDub build 30091/release

Video
ID : 0
Format : MPEG-4 Visual
Format profile : Advanced Simple@L5
Format settings, BVOP : 2
Format settings, QPel : No
Format settings, GMC : No warppoints
Format settings, Matrix : Default (H.263)
Codec ID : XVID
Codec ID/Hint : XviD
Duration : 1h 26mn
Bit rate : 658 Kbps
Width : 720 pixels
Height : 304 pixels
Display aspect ratio : 2.35:1
Frame rate : 25.000 fps
Color space : YUV
Chroma subsampling : 4:2:0
Bit depth : 8 bits
Scan type : Progressive
Compression mode : Lossy
Bits/(Pixel*Frame) : 0.120
Stream size : 405 MiB (63%)
Writing library : XviD 1.2.1 (UTC 2008-12-04)

Audio
ID : 1
Format : AC-3
Format/Info : Audio Coding 3
Mode extension : CM (complete main)
Codec ID : 2000
Duration : 1h 26mn
Bit rate mode : Constant
Bit rate : 384 Kbps
Channel(s) : 6 channels
Channel positions : Front: L C R, Side: L R, LFE
Sampling rate : 48.0 KHz
Bit depth : 16 bits
Compression mode : Lossy
Stream size : 236 MiB (37%)
Alignment : Aligned on interleaves
Interleave, duration : 40 ms (1.00 video frame)
Interleave, preload duration : 512 ms









Comments on Frankenweenie 2012 DVDRip XviD-SPARK

00 COMMENT(S) INSIDE

No comments available for this file !



Post a comment

Username
Password



Files

Filename Size
Frankenweenie-SPARK.wmv 710.5 MB
info.nfo 5 KB
Readme.txt 683 Bytes
Torrent downloaded from Extratorrent.com.txt 119 Bytes
Torrent downloaded from AhaShare.com.txt 59 Bytes
Torrent downloaded from Demonoid.me.txt 46 Bytes
Torrent downloaded from silvertorrent.org.txt 41 Bytes
Torrent Downloaded From BTScene.eu.txt 34 Bytes
Torrent downloaded from Rarbg.com.txt 33 Bytes
Torrent downloaded from h33t.com.txt 32 Bytes
Torrent downloaded from KAT.ph.txt 30 Bytes
tracked_by_h33t_com.txt.txt 23 Bytes

Share Frankenweenie 2012 DVDRip XviD-SPARK

Permalink URL
Standard HREF Link Code
Link For Forums
Bookmark

Related torrents

Other torrents that might interest you

Movies torrents: recent searches



www.usenet.nl


Torrents Stats
ADDED TODAY
5122 torrent(s)
TOTAL
13190819 torrents

Cinema News


Latest searches

Friends


RSS2



DMCA Info  |  Privacy policy  |  Contact  | 
Copyright 2007-2013 ©SUMOTorrent. All rights reserved.

Download Frankenweenie 2012 DVDRip XviD-SPARKTorrent