Download Sex Tape (2014) FRENCH CAM XViD NoTag.torrentTorrent

login Login create account Create account Separator English  Francais  Espanol  Italiano  Deutsch
Torrent > Movies > Comedy > Sex Tape (2014) FRENCH CAM XViD NoTag.torrent


Sex Tape (2014) FRENCH CAM XViD NoTag.torrent


Download

Information about Sex Tape (2014) FRENCH CAM XViD NoTag.torrent

- Download torrent

Seeds 152
Peers 384
Size 870 MB
Date Thursday, 17 July 2014 at 07:07:22
Comments 0
Category Movies Comedy
Hash 85cce662dd68c23b42f766ba5d4401fb3f697ce2
Reported Verified (0) - Fake (0) - Password (0) - Virus (0)
Uploader Anonymous

Description

A married couple wake up to discover that the sex tape they made the evening before has gone missing, leading to a frantic search for its whereabouts.


Director: Jake Kasdan
Writers: Kate Angelo, Jason Segel
Stars: Jason Segel, Cameron Diaz, Rob Corddry
Genres: Comedy
Country: USA | Australia
Language: English



Source: 720p Italian/MiLLENiUM THX

OK took Italian source ran some filters.. threw on MiLLENiUM line.. came out pretty nice.. Enjoy

General

Format : Matroska
Format version : Version 2
Duration : 1h 45mn
Overall bit rate mode : Variable
Overall bit rate : 1 453 Kbps
Encoded date : UTC 2014-06-10 15:03:08
Writing application : mkvmerge v6.9.1 ('Blue Panther') 32bit built on Apr 18 2014 18:15:44
Writing library : libebml v1.3.0 + libmatroska v1.4.1

Video
ID : 1
Format : AVC
Format/Info : Advanced Video Codec
Format profile : High@L4.1
Format settings, CABAC : Yes
Format settings, ReFrames : 3 frames
Codec ID : V_MPEG4/ISO/AVC
Duration : 1h 45mn
Bit rate mode : Variable
Bit rate : 1 232 Kbps
Maximum bit rate : 40.0 Mbps
Width : 720 pixels
Height : 296 pixels
Display aspect ratio : 2.40:1
Frame rate mode : Constant
Frame rate : 25.000 fps
Color space : YUV
Chroma subsampling : 4:2:0
Bit depth : 8 bits
Scan type : Progressive
Bits/(Pixel*Frame) : 0.231
Stream size : 931 MiB (85%)
Writing library : x264 core 142 r2431 ac76440
Default : Yes
Forced : No
Color primaries : BT.709
Transfer characteristics : BT.709
Matrix coefficients : BT.709

Audio
ID : 2
Format : AC-3
Format/Info : Audio Coding 3
Mode extension : CM (complete main)
Format settings, Endianness : Big
Codec ID : A_AC3
Duration : 1h 45mn
Bit rate mode : Constant
Bit rate : 192 Kbps
Channel(s) : 2 channels
Channel positions : Front: L R
Sampling rate : 44.1 KHz
Bit depth : 16 bits
Compression mode : Lossy
Stream size : 145 MiB (13%)
Default : Yes
Forced : No

Comments on Sex Tape (2014) FRENCH CAM XViD NoTag.torrent

00 COMMENT(S) INSIDE

No comments available for this file !



Post a comment

Username
Password



Files

Filename Size
Sex Tape (2014) FRENCH CAM XViD NoTag.avi 869.7 MB

Share Sex Tape (2014) FRENCH CAM XViD NoTag.torrent

Permalink URL
Standard HREF Link Code
Link For Forums
Bookmark

Other torrents that might interest you

Movies torrents: recent searches



download


Torrents Stats
ADDED TODAY
3181 torrent(s)
TOTAL
5685545 torrents

Cinema News
Sponsored by VeryAware.com


Latest searches

Friends


RSS2




DMCA Info  |  Privacy policy  |  Contact
Copyright 2007-2014 ©SUMOTorrent. All rights reserved.

Download Sex Tape (2014) FRENCH CAM XViD NoTag.torrentTorrent