Download Silver Linings Playbook 2012 DVDRip XviD - RiSESTorrent

login Login create account Create account Separator English  Francais  Espanol  Italiano  Deutsch
Torrent > Movies > Comedy > Silver Linings Playbook 2012 DVDRip XviD - RiSES

Removed at the request of copyright owner
Removed at the request of copyright owner

Silver Linings Playbook 2012 DVDRip XviD - RiSES


Information about Silver Linings Playbook 2012 DVDRip XviD - RiSES

- Download torrent

Seeds 118
Peers 17
Size 674.7 MB
Date Monday, 12 November 2012 at 20:31:59
Comments 0
Category Movies Comedy
Hash 9633454cbfbd2cb1a2303e0606f084e82f9ef271
Reported Verified (0) - Fake (0) - Password (0) - Virus (0)
Uploader Anonymous

Description




Video
ID : 0
Format profile : Advanced Simple@L5
Format settings, BVOP : 2
Format settings, QPel : No
Format settings, GMC : No warppoints
Format settings, Matrix : Default (H.263)
Codec ID : XVID
Codec ID/Hint : XviD
Duration : 1h 42mn
Bit rate : 819 Kbps
Width : 624 pixels
Height : 352 pixels
Display aspect ratio : 16:9
Frame rate : 25.000 fps
Color space : YUV
Chroma subsampling : 4:2:0
Bit depth : 8 bits
Scan type : Progressive
Compression mode : Lossy
Bits/(Pixel*Frame) : 0.149
Stream size : 600 MiB (85%)
Writing library : XviD 64

Audio
ID : 1
Format : MPEG Audio
Format version : Version 1
Format profile : Layer 3
Mode : Joint stereo
Mode extension : MS Stereo
Codec ID : 55
Codec ID/Hint : MP3
Duration : 1h 42mn
Bit rate mode : Variable
Bit rate : 128 Kbps
Channel(s) : 2 channels
Sampling rate : 48.0 KHz
Compression mode : Lossy
Stream size : 92.9 MiB (13%)
Alignment : Aligned on interleaves
Interleave, duration : 24 ms (0.60 video frame)
Interleave, preload duration : 127 ms
Writing library : LAME3.98.4


Comments on Silver Linings Playbook 2012 DVDRip XviD - RiSES

00 COMMENT(S) INSIDE

No comments available for this file !



Post a comment

Username
Password



Files

Filename Size
subtitles 46 KB
subtitles 70 KB
subtitles 31 KB
Silver Linings Playbook 2012 DVDRip XviD.wmv 673.5 MB
READ this before playing the Video.txt 5 KB
info.nfo 3 KB

Share Silver Linings Playbook 2012 DVDRip XviD - RiSES

Permalink URL
Standard HREF Link Code
Link For Forums
Bookmark

Related torrents

Other torrents that might interest you

Movies torrents: recent searches



www.usenet.nl


Torrents Stats
ADDED TODAY
4259 torrent(s)
TOTAL
13220858 torrents

Cinema News


Latest searches

Friends


RSS2



DMCA Info  |  Privacy policy  |  Contact  | 
Copyright 2007-2013 ©SUMOTorrent. All rights reserved.

Download Silver Linings Playbook 2012 DVDRip XviD - RiSESTorrent