Download Hotel Transylvania (2012) DVD Rip XViD- JaybobTorrent

login Login create account Create account Separator English  Francais  Espanol  Italiano  Deutsch
Torrent > Movies > Drama > Hotel Transylvania (2012) DVD Rip XViD- Jaybob


Hotel Transylvania (2012) DVD Rip XViD- Jaybob


Information about Hotel Transylvania (2012) DVD Rip XViD- Jaybob

- Download torrent

Seeds 117
Peers 2
Size 793.6 MB
Date Tuesday, 04 December 2012 at 09:41:14
Comments 0
Category Movies Drama
Hash e6b86382e57079cbeabd1fae8bacc55c0ca0dd5d
Reported Verified (0) - Fake (0) - Password (0) - Virus (0)
Uploader Rebeuqcca

Description

-------------------------------------------------------------------
Please share....Dont hit and run...Seed it back at least once.

Of course, if you want to seed it back more than once, that would be ok too :)
-------------------------------------------------------------------

QUALITY: PERFECT 10/10

All details are here:

Format | AVI Language | ENGLISH
Source | DVD PAL Subs | NONE

QUALITY: PERFECT 10/10

- Video
ID : 0
Format : MPEG-4 Visual
Format profile : Advanced Simple@L5
Format settings, BVOP : Yes
Format settings, QPel : No
Format settings, GMC : No warppoints
Format settings, Matrix : Default (H.263)
Muxing mode : Packed bitstream
Codec ID : XVID
Codec ID/Hint : XviD
Bit rate : 1 345 Kbps
Width : 720 pixels
Height : 314 pixels
Display aspect ratio : 2.25:1
Frame rate : 29.970 fps
Color space : YUV
Chroma subsampling : 4:2:0
Bit depth : 8 bits
Scan type : Progressive
Compression mode : Lossy
Bits/(Pixel*Frame) : 0.198
Stream size : 1.19 GiB (87%)
Writing library : XviD 1.1.0 (UTC 2005-11-22)

- Audio
ID : 1
Format : AC-3
Format/Info : Audio Coding 3
Mode extension : CM (complete main)
Codec ID : 2000
Bit rate mode : Constant
Bit rate : 192 Kbps
Channel(s) : 2 channels
Channel positions : Front: L R
Sampling rate : 48.0 KHz
Bit depth : 16 bits
Compression mode : Lossy
Stream size : 175 MiB (12%)
Alignment : Aligned on interleaves
Interleave, duration : 33 ms (1.00 video frame)
Interleave, preload duration : 512 ms

Comments on Hotel Transylvania (2012) DVD Rip XViD- Jaybob

00 COMMENT(S) INSIDE

No comments available for this file !



Post a comment

Username
Password



Files

Filename Size
Hotel Transylvania (2012) DVDRip-Jaybob.rar 792.6 MB

Share Hotel Transylvania (2012) DVD Rip XViD- Jaybob

Permalink URL
Standard HREF Link Code
Link For Forums
Bookmark

Related torrents

Other torrents that might interest you

Movies torrents: recent searches



www.usenet.nl


Torrents Stats
ADDED TODAY
4061 torrent(s)
TOTAL
13216601 torrents

Cinema News


Latest searches

Friends


RSS2



DMCA Info  |  Privacy policy  |  Contact  | 
Copyright 2007-2013 ©SUMOTorrent. All rights reserved.

Download Hotel Transylvania (2012) DVD Rip XViD- JaybobTorrent