Download Broken City (2013) FRENCH DVDRIP XviD PHENIXTorrent

login Login create account Create account Separator English  Francais  Espanol  Italiano  Deutsch
Torrent > Movies > Action > Broken City (2013) FRENCH DVDRIP XviD PHENIX


Broken City (2013) FRENCH DVDRIP XviD PHENIX


Information about Broken City (2013) FRENCH DVDRIP XviD PHENIX

- Download torrent

Seeds 143
Peers 7
Size 1.2 GB
Date Monday, 14 January 2013 at 09:08:46
Comments 0
Category Movies Action
Hash 93bcc144aa0c41053716dff079493e68e11cb73f
Reported Verified (0) - Fake (0) - Password (0) - Virus (0)
Uploader Anonymous

Description

Broken City (2013) FRENCH DVDRIP XviD PHENIX

Video
ID : 0
Format : MPEG-4 Visual
Format profile : Advanced Simple@L5
Format settings, BVOP : 2
Format settings, QPel : No
Format settings, GMC : No warppoints
Format settings, Matrix : Default (H.263)
Muxing mode : Packed bitstream
Codec ID : XVID
Codec ID/Hint : XviD
Duration : 1h 36mn
Bit rate : 1 573 Kbps
Width : 720 pixels
Height : 304 pixels
Display aspect ratio : 2.35:1
Frame rate : 23.976 fps
Color space : YUV
Chroma subsampling : 4:2:0
Bit depth : 8 bits
Scan type : Progressive
Compression mode : Lossy
Bits/(Pixel*Frame) : 0.300
Stream size : 1.06 GiB (77%)
Writing library : XviD 64

Audio
ID : 1
Format : AC-3
Format/Info : Audio Coding 3
Mode extension : CM (complete main)
Format settings, Endianness : Big
Codec ID : 2000
Duration : 1h 36mn
Bit rate mode : Constant
Bit rate : 448 Kbps
Channel(s) : 6 channels
Channel positions : Front: L C R, Side: L R, LFE
Sampling rate : 48.0 KHz
Bit depth : 16 bits
Compression mode : Lossy
Stream size : 309 MiB (22%)
Alignment : Aligned on interleaves
Interleave, duration : 42 ms (1.00 video frame)

Comments on Broken City (2013) FRENCH DVDRIP XviD PHENIX

00 COMMENT(S) INSIDE

No comments available for this file !



Post a comment

Username
Password



Files

Filename Size
Broken City (2013) FRENCH DVDRIP XviD PHENIX.avi 1.2 GB
ExtraTorrentRG.mp4 1.4 MB
MOVIE.nfo 5 KB
Torrent downloaded from Rarbg.com.txt 22 Bytes
Torrent downloaded from www.KAT.ph.txt 41 Bytes
Torrent_downloaded_from_Extratorrent_Com.txt 42 Bytes
extrainfoplain.png 51 KB

Share Broken City (2013) FRENCH DVDRIP XviD PHENIX

Permalink URL
Standard HREF Link Code
Link For Forums
Bookmark

Related torrents

Other torrents that might interest you

Movies torrents: recent searches



www.usenet.nl


Torrents Stats
ADDED TODAY
3755 torrent(s)
TOTAL
13200596 torrents

Cinema News


Latest searches

Friends


RSS2



DMCA Info  |  Privacy policy  |  Contact  | 
Copyright 2007-2013 ©SUMOTorrent. All rights reserved.

Download Broken City (2013) FRENCH DVDRIP XviD PHENIXTorrent