Download Zero Dark Thirty 2012 CAM RipTorrent

login Login create account Create account Separator English  Francais  Espanol  Italiano  Deutsch
Torrent > Movies > Action > Zero Dark Thirty 2012 CAM Rip

Removed at the request of copyright owner
Removed at the request of copyright owner

Zero Dark Thirty 2012 CAM Rip


Information about Zero Dark Thirty 2012 CAM Rip

- Download torrent

Seeds 109
Peers 31
Size 1.2 GB
Date Tuesday, 15 January 2013 at 11:17:04
Comments 0
Category Movies Action
Hash 740cd29cb322f0d1f02bc66aa543e9e461ee359b
Reported Verified (0) - Fake (0) - Password (0) - Virus (0)
Uploader ruthgrayoiq

Description

Zero Dark Thirty 2012 CAM Rip


Format : AVI
Format/Info : Audio Video Interleave
Format profile : OpenDML
File size : 1.2 GiB
Duration : 2h 37mn
Overall bit rate : 1 052 Kbps
Writing application : VirtualDubMod 1.5.10.2 (build 2542/release)
Writing library : VirtualDubMod build 2542/release
Video
ID : 0
Format : MPEG-4 Visual
Format profile : AdvancedSimple@L5
Format settings, BVOP : Yes
Format settings, QPel : No
Format settings, GMC : No warppoints
Format settings, Matrix : Default (MPEG)
Codec ID : XVID
Codec ID/Hint : XviD
Duration : 2h 37mn
Bit rate : 942 Kbps
Width : 640 pixels
Height : 272 pixels
Display aspect ratio : 2.35:1
Frame rate : 23.976 fps
Resolution : 24 bits
Colorimetry : 4:2:0
Scan type : Progressive
Bits/(Pixel*Frame) : 0.271
Stream size : 669 MiB (78%)
Writing library : XviD 1.2.1 (UTC 2008-12-04)
Audio
ID : 1
Codec ID : 2000
Duration : 2h 37mn
Bit rate mode : Constant
Bit rate : 128 Kbps
Channel(s) : 2 channels
Channel positions : Front: L R
Sampling rate : 48.0 KHz
Stream size : 30 MiB (22%)
Alignment : Aligned on interleaves
Interleave, duration : 64 ms (1.53 video frames)
Interleave, preload duration : 192 ms

Comments on Zero Dark Thirty 2012 CAM Rip

00 COMMENT(S) INSIDE

No comments available for this file !



Post a comment

Username
Password



Files

Filename Size
Torrent downloaded from Extratorrent.com.txt 40 Bytes
Torrent downloaded from Kat.ph.txt 46 Bytes
Torrent downloaded from Rarbg.com.txt 33 Bytes
Torrent downloaded from h33t.com.txt 32 Bytes
Zero Dark Thirty 2012 CAM Rip.avi 1.2 GB

Share Zero Dark Thirty 2012 CAM Rip

Permalink URL
Standard HREF Link Code
Link For Forums
Bookmark

Related torrents

Other torrents that might interest you

Movies torrents: recent searches



www.usenet.nl


Torrents Stats
ADDED TODAY
4275 torrent(s)
TOTAL
13222050 torrents

Cinema News


Latest searches

Friends


RSS2



DMCA Info  |  Privacy policy  |  Contact  | 
Copyright 2007-2013 ©SUMOTorrent. All rights reserved.

Download Zero Dark Thirty 2012 CAM RipTorrent