Download Broken City 2013 (Hindi) 720p HDTorrent

login Login create account Create account Separator English  Francais  Espanol  Italiano  Deutsch
Torrent > Movies > Thriller > Broken City 2013 (Hindi) 720p HD


Broken City 2013 (Hindi) 720p HD


Information about Broken City 2013 (Hindi) 720p HD

- Download torrent

Seeds 140
Peers 36
Size 1.2 GB
Date Friday, 18 January 2013 at 08:17:11
Comments 0
Category Movies Thriller
Hash 104d43a2301686c3905ea4ef08dadd4ad52a840c
Reported Verified (0) - Fake (0) - Password (0) - Virus (0)
Uploader pamelaprice21

Description

Broken City 2013 (Hindi) 720p HD

Format : AVI
Format/Info : Audio Video Interleave
Format profile : OpenDML
File size : 1020 MiB
Duration : 1h 49mn
Overall bit rate : 1 714 Kbps
Writing application : VirtualDubMod 1.5.10.2 (build 2542/release)
Writing library : VirtualDubMod build 2542/release
Original source form : MAX TORRENTZ

Video
ID : 0
Format : MPEG-4 Visual
Format profile : AdvancedSimple@L5
Format settings, BVOP : Yes
Format settings, QPel : No
Format settings, GMC : No warppoints
Format settings, Matrix : Default (H.263)
Codec ID : XVID
Codec ID/Hint : XviD
Duration : 1h 49mn
Bit rate : 1 325 Kbps
Width : 640 pixels
Height : 272 pixels
Display aspect ratio : 2.35:1
Frame rate : 23.976 fps
Resolution : 24 bits
Colorimetry : 4:2:0
Scan type : Progressive
Bits/(Pixel*Frame) : 0.318
Stream size : 1020 MiB (88%)

Audio
ID : 1
Format : AC-3
Format/Info : Audio Coding 3
Codec ID : 2000
Duration : 1h 49mn
Bit rate mode : Constant
Bit rate : 384 Kbps
Channel(s) : 6 channels
Channel positions : Front: L C R, Surround: L R, LFE
Sampling rate : 48.0 KHz
Stream size : 147 MiB (22%)
Alignment : Aligned on interleaves
Interleave, duration : 64 ms (1.54 video frames)
Interleave, preload duration : 192 ms

Comments on Broken City 2013 (Hindi) 720p HD

00 COMMENT(S) INSIDE

No comments available for this file !



Post a comment

Username
Password



Files

Filename Size
Broken City 2013 (Hindi) 720p HD.avi 1.2 GB
HDRelease.nfo.nfo 2 KB
Torrent downloaded from Kat.ph.txt 46 Bytes
Torrent downloaded from Rarbg.com.txt 33 Bytes
Torrent downloaded from h33t.com.txt 32 Bytes
Torrent_downloaded_from_Extratorrent_Com.txt 42 Bytes

Share Broken City 2013 (Hindi) 720p HD

Permalink URL
Standard HREF Link Code
Link For Forums
Bookmark

Related torrents

Name Seeds Peers
Broken City 2013 (Hindi) 720p HD 102 12

Other torrents that might interest you

Movies torrents: recent searches



www.usenet.nl


Torrents Stats
ADDED TODAY
3755 torrent(s)
TOTAL
13200596 torrents

Cinema News


Latest searches

Friends


RSS2



DMCA Info  |  Privacy policy  |  Contact  | 
Copyright 2007-2013 ©SUMOTorrent. All rights reserved.

Download Broken City 2013 (Hindi) 720p HDTorrent