Download Justin Beiber Feat. Nicki Minaj - Beauty and the Beat lyricsTorrent

login Login create account Create account Separator English  Francais  Espanol  Italiano  Deutsch
Torrent > Music > Video Clips > Justin Beiber Feat. Nicki Minaj - Beauty and the Beat lyrics


Justin Beiber Feat. Nicki Minaj - Beauty and the Beat lyrics


Information about Justin Beiber Feat. Nicki Minaj - Beauty and the Beat lyrics

- Download torrent

Seeds 84
Peers 20
Size 10.1 MB
Date Sunday, 20 January 2013 at 08:37:59
Comments 0
Category Music Video Clips
Hash d9a25f625b27b4784a3d6bd3d19adfd04b23ce37
Reported Verified (0) - Fake (0) - Password (0) - Virus (0)
Uploader davidstonman

Description

Beauty and the beast with lyrics
Format : Mp4
Duration : 3:54
Specialty : Lyrics on the Video






Real Song Info
Song :Beauty and the Beat
Artist :Justin Beiber,Nicki Minaj
Released : November 13, 2012
Recorded : 2012
Genre : Electronic dance, electropop
Length : 3:48
Label : Island, RBMG, Schoolboy
Writer(s) : Max Martin, Anton Zaslavski, Savan Kotecha, Onika Maraj
Producer : Max Martin, Zedd



Media Info
Complete name : Justin Beiber Feat. Nicki Minaj - Beauty and the Beat lyrics.mp4
Format : MPEG-4
Format profile : Sony PSP
Codec ID : MSNV
File size : 21.1 MiB
Duration : 3mn 54s
Overall bit rate : 756 Kbps
Encoded date : UTC 2013-01-15 13:08:05
Tagged date : UTC 2013-01-15 13:08:05

Video
ID : 1
Format : AVC
Format/Info : Advanced Video Codec
Format profile : Main@L3.0
Format settings, CABAC : Yes
Format settings, ReFrames : 2 frames
Format settings, GOP : M=2, N=29
Codec ID : avc1
Codec ID/Info : Advanced Video Coding
Duration : 3mn 54s
Bit rate mode : Variable
Bit rate : 643 Kbps
Width : 640 pixels
Height : 480 pixels
Display aspect ratio : 16:9
Frame rate mode : Constant
Frame rate : 25.000 fps
Color space : YUV
Chroma subsampling : 4:2:0
Bit depth : 8 bits
Scan type : Progressive
Bits/(Pixel*Frame) : 0.084
Stream size : 18.0 MiB (85%)
Language : English
Encoded date : UTC 2013-01-15 13:08:05
Tagged date : UTC 2013-01-15 13:08:05

Audio
ID : 2
Format : AAC
Format/Info : Advanced Audio Codec
Format profile : LC
Codec ID : 40
Duration : 3mn 54s
Source duration : 3mn 54s
Bit rate mode : Constant
Bit rate : 109 Kbps
Nominal bit rate : 128 Kbps
Channel(s) : 2 channels
Channel positions : Front: L R
Sampling rate : 48.0 KHz
Compression mode : Lossy
Stream size : 3.04 MiB (14%)
Source stream size : 3.04 MiB (14%)
Language : English
Encoded date : UTC 2013-01-15 13:08:05
Tagged date : UTC 2013-01-15 13:08:05
mdhd_Duration : 234666

Comments on Justin Beiber Feat. Nicki Minaj - Beauty and the Beat lyrics

00 COMMENT(S) INSIDE

No comments available for this file !



Post a comment

Username
Password



Files

Filename Size
Justin Beiber Feat. Nicki Minaj - Beauty and the Beat lyrics.rar 10.1 MB

Share Justin Beiber Feat. Nicki Minaj - Beauty and the Beat lyrics

Permalink URL
Standard HREF Link Code
Link For Forums
Bookmark

Other torrents that might interest you

Music torrents: recent searches



www.usenet.nl


Torrents Stats
ADDED TODAY
3755 torrent(s)
TOTAL
13200596 torrents

Cinema News


Latest searches

Friends


RSS2



DMCA Info  |  Privacy policy  |  Contact  | 
Copyright 2007-2013 ©SUMOTorrent. All rights reserved.

Download Justin Beiber Feat. Nicki Minaj - Beauty and the Beat lyricsTorrent