Download Race 2 (2013) 1080p BrRip x264 - YIFYTorrent

login Login create account Create account Separator English  Francais  Espanol  Italiano  Deutsch
Torrent > Movies > Action > Race 2 (2013) 1080p BrRip x264 - YIFY


Race 2 (2013) 1080p BrRip x264 - YIFY


Information about Race 2 (2013) 1080p BrRip x264 - YIFY

- Download torrent

Seeds 143
Peers 59
Size 1.3 GB
Date Thursday, 24 January 2013 at 13:01:26
Comments 0
Category Movies Action
Hash 2311652fd9fb9c0d884713f8905dd2666c715370
Reported Verified (0) - Fake (0) - Password (0) - Virus (0)
Uploader nancywardral

Description

Race 2 (2013) 1080p BrRip x264 - YIFY

Format : AVI
Format/Info : Audio Video Interleave
Format profile : OpenDML
Duration : 110 minutes
Overall bit rate : 1 206 Kbps
Writing application : VirtualDubMod 1.5.10.2 (build 2542/release)
Writing library : VirtualDubMod build 2542/release
Original source form : MAX TORRENTZ
Copyright : SIGISMUNT

Video
ID : 0
Format : MPEG-4 Visual
Format profile : AdvancedSimple@L5
Format settings, BVOP : Yes
Format settings, QPel : No
Format settings, GMC : No warppoints
Format settings, Matrix : Default (H.263)
Muxing mode : Packed bitstream
Codec ID : XVID
Codec ID/Hint : XviD
Duration : 110 minutes
Bit rate : 1 010 Kbps
Width : 640 pixels
Height : 272 pixels
Display aspect ratio : 2.35:1
Frame rate : 23.976 fps
Resolution : 24 bits
Colorimetry : 4:2:0
Scan type : Progressive
Bits/(Pixel*Frame) : 0.242
Stream size : 962 MiB (84%)
Writing library : XviD 57

Audio
ID : 1
Format : MPEG Audio
Format version : Version 1
Format profile : Layer 3
Codec ID : 55
Codec ID/Hint : MP3
Duration : 110 minutes
Bit rate mode : Constant
Bit rate : 192 Kbps
Channel(s) : 2 channels
Sampling rate : 48.0 KHz
Resolution : 16 bits
Stream size : 183 MiB (16%)
Alignment : Aligned on interleaves
Interleave, duration : 712 ms (17.08 video frames)
Interleave, preload duration : 216 ms
Writing library : LAME3.98.2

Source: DVD (perfect a/v/sync quality+filtered audio with additional 400% volume , sample is included)

Race 2 (2013) 1080p BrRip x264 - YIFY Free Download

Torrent Client - Preferences - Bandwidth - Number of connections - Set aprox. 500 for each
Torrent Client - Preferences - BiTorrent - Protocol Encryption - Forced
Bandwidth Allocation - High (Set download/upload limit - Unlimited)
Stop Other Active Torrents - Start downloading and wait for connections.
Enjoy and Seed for at least 1:1 ratio. Don't forget to say thanks/leave reviews.
Before downloading you should check/google search sample "release name""sample".
Greets to all actual/future p2p/scene QUALITY groups and affiliate websites.
Don't trust IMDb robot or bad ratings,always watch some trailers first.
Please spread this release/torrent to your friends/forums/etc.
If you need translation subs visit some subtitles sites.
Report if you see online streaming or other spam links.
Recommended movie player VLC PLAYER. Torrent Free Download

Comments on Race 2 (2013) 1080p BrRip x264 - YIFY

00 COMMENT(S) INSIDE

No comments available for this file !



Post a comment

Username
Password



Files

Filename Size
MOVIE.nfo 5 KB
Race 2 (2013) 1080p BrRip x264 - YIFY.avi 1.3 GB
Torrent_downloaded_from_Extratorrent_Com.txt 42 Bytes
extrainfoplain.png 51 KB
sample.mp4 29.8 MB

Share Race 2 (2013) 1080p BrRip x264 - YIFY

Permalink URL
Standard HREF Link Code
Link For Forums
Bookmark

Related torrents

Other torrents that might interest you

Movies torrents: recent searches



www.usenet.nl


Torrents Stats
ADDED TODAY
3794 torrent(s)
TOTAL
13218277 torrents

Cinema News


Latest searches

Friends


RSS2



DMCA Info  |  Privacy policy  |  Contact  | 
Copyright 2007-2013 ©SUMOTorrent. All rights reserved.

Download Race 2 (2013) 1080p BrRip x264 - YIFYTorrent