Download Life Of Pi (2013) DvDRiP XViD -UNCUT FULL Torrent

login Login create account Create account Separator English  Francais  Espanol  Italiano  Deutsch
Torrent > Miscellaneous > Unsorted > Life Of Pi (2013) DvDRiP XViD -UNCUT FULL


Life Of Pi (2013) DvDRiP XViD -UNCUT FULL


Information about Life Of Pi (2013) DvDRiP XViD -UNCUT FULL

- Download torrent

Seeds 16173
Peers 3072
Size 798.3 MB
Date Thursday, 28 February 2013 at 14:02:13
Comments 0
Category Miscellaneous Unsorted
Hash c8c0116417cdd91e0b4cc8cbc502168097b5f2a7
Reported Verified (0) - Fake (0) - Password (0) - Virus (0)
Uploader Anonymous

Description

------------------------------------------------------------------- Please share....Dont hit and run...Seed it back at least once. Of course, if you want to seed it back more than once, that would be ok too :) ------------------------------------------------------------------- QUALITY: PERFECT 10/10 All details are here: Format | AVI Language | ENGLISH Source | DVD PAL Subs | NONE QUALITY: PERFECT 10/10 - Video ID : 0 Format : MPEG-4 Visual Format profile : Advanced Simple@L5 Format settings, BVOP : Yes Format settings, QPel : No Format settings, GMC : No warppoints Format settings, Matrix : Default (H.263) Muxing mode : Packed bitstream Codec ID : XVID Codec ID/Hint : XviD Bit rate : 1 345 Kbps Width : 720 pixels Height : 314 pixels Display aspect ratio : 2.25:1 Frame rate : 29.970 fps Color space : YUV Chroma subsampling : 4:2:0 Bit depth : 8 bits Scan type : Progressive Compression mode : Lossy Bits/(Pixel*Frame) : 0.198 Stream size : 1.19 GiB (87%) Writing library : XviD 1.1.0 (UTC 2005-11-22) - Audio ID : 1 Format : AC-3 Format/Info : Audio Coding 3 Mode extension : CM (complete main) Codec ID : 2000 Bit rate mode : Constant Bit rate : 192 Kbps Channel(s) : 2 channels Channel positions : Front: L R Sampling rate : 48.0 KHz Bit depth : 16 bits Compression mode : Lossy Stream size : 175 MiB (12%) Alignment : Aligned on interleaves Interleave, duration : 33 ms (1.00 video frame) Interleave, preload duration : 512 ms

Comments on Life Of Pi (2013) DvDRiP XViD -UNCUT FULL

00 COMMENT(S) INSIDE

No comments available for this file !



Post a comment

Username
Password



Files

Filename Size
Life Of Pi (2013) DvDRiP XViD-UNCUT FULL.rar 798.3 MB
Readme First.txt 303 Bytes

Trackers

Tracker Seeds Peers
udp://tracker.istole.it:80 1 year ago 0 0
http://fr33dom.h33t.com:3310/announce 1 year ago 0 0
http://tracker.thepiratebay.org/announce 1 year ago 0 0
udp://tracker.openbittorrent.com:80 1 year ago 0 0
udp://tracker.ccc.de:80 1 year ago 0 0
udp://tracker.publicbt.com:80 1 year ago 0 0

Share Life Of Pi (2013) DvDRiP XViD -UNCUT FULL

Permalink URL
Standard HREF Link Code
Link For Forums
Bookmark

Related torrents

Other torrents that might interest you

Miscellaneous torrents: recent searches



www.usenet.nl


Torrents Stats
ADDED TODAY
2809 torrent(s)
TOTAL
13202357 torrents

Cinema News


Latest searches

Friends


RSS2



DMCA Info  |  Privacy policy  |  Contact  | 
Copyright 2007-2013 ©SUMOTorrent. All rights reserved.

Download Life Of Pi (2013) DvDRiP XViD -UNCUT FULL Torrent