Download Une.chanson.pour.ma.mere.2013.DVDRip.HDTorrent

login Login create account Create account Separator English  Francais  Espanol  Italiano  Deutsch
Torrent > Movies > DVD Film Extras > Une.chanson.pour.ma.mere.2013.DVDRip.HD


Une.chanson.pour.ma.mere.2013.DVDRip.HD


Information about Une.chanson.pour.ma.mere.2013.DVDRip.HD

- Download torrent

Seeds 141
Peers 21
Size 721.1 MB
Date Saturday, 02 March 2013 at 14:19:52
Comments 0
Category Movies DVD Film Extras
Hash a08edd71c944f78704fb7949e904930f2b604f03
Reported Verified (0) - Fake (0) - Password (0) - Virus (0)
Uploader Anonymous

Description

Format : AVI
Format/Info : Audio Video Interleave
Format profile : OpenDML
Overall bit rate : 1 800 Kbps
Writing application : VirtualDubMod 1.5.10.2 (build 2542/release)
Writing library : VirtualDubMod build 2542/release

[b]Video[/b]
Format : MPEG-4 Visual
Format settings, BVOP : Yes
Format settings, QPel : No
Format settings, Matrix : Default (MPEG)
Codec ID : XVID
Codec ID/Hint : XviD
Bit rate : 1 411 Kbps
Width : 640 pixels
Height : 272 pixels
Display aspect ratio : 2.35:1
Frame rate : 23.976 fps
Resolution : 24 bits
Colorimetry : 4:2:0
Scan type : Progressive
Bits/(Pixel*Frame) : 0.338
Stream size : 1.03 GiB (78%)

[b]Audio[/b]
Format : AC-3
Format/Info : Audio Coding 3
Codec ID : 2000
Bit rate mode : Constant
Bit rate : 384 Kbps
Channel(s) : 6 channels
Channel positions : Front: L C R, Surround: L R, LFE
Sampling rate : 48.0 KHz
Stream size : 287 MiB (21%)
Alignment : Aligned on interleaves
Interleave, duration : 64 ms (1.53 video frames)
Interleave, preload duration : 192 ms

Comments on Une.chanson.pour.ma.mere.2013.DVDRip.HD

00 COMMENT(S) INSIDE

No comments available for this file !



Post a comment

Username
Password



Files

Filename Size
Une.chanson.pour.ma.mere.2013.DVDRip.HD.jpeg 1 MB
Une.chanson.pour.ma.mere.2013.DVDRip.HD.nfo 1 MB
Dmt Nfo.txt 483 Bytes
Une.chanson.pour.ma.mere.2013.DVDRip.HD.avi 10 MB
Torrent downloaded from h33t.com.txt 483 Bytes
Torrent Downloaded From downloadhindimovies.in.txt 483 Bytes
Une.chanson.pour.ma.mere.2013.DVDRip.HD 708.9 MB

Share Une.chanson.pour.ma.mere.2013.DVDRip.HD

Permalink URL
Standard HREF Link Code
Link For Forums
Bookmark

Other torrents that might interest you

Movies torrents: recent searches



www.usenet.nl


Torrents Stats
ADDED TODAY
3755 torrent(s)
TOTAL
13200596 torrents

Cinema News


Latest searches

Friends


RSS2



DMCA Info  |  Privacy policy  |  Contact  | 
Copyright 2007-2013 ©SUMOTorrent. All rights reserved.

Download Une.chanson.pour.ma.mere.2013.DVDRip.HDTorrent