Download The ABCs of Death 2013 FRENCH DVDRip XviD - playXDTorrent

login Login create account Create account Separator English  Francais  Espanol  Italiano  Deutsch
Torrent > Movies > Horror > The ABCs of Death 2013 FRENCH DVDRip XviD - playXD

Removed at the request of copyright owner
Removed at the request of copyright owner

The ABCs of Death 2013 FRENCH DVDRip XviD - playXD


Information about The ABCs of Death 2013 FRENCH DVDRip XviD - playXD

- Download torrent

Seeds 63
Peers 31
Size 701.6 MB
Date Wednesday, 13 March 2013 at 16:58:34
Comments 0
Category Movies Horror
Hash d3899bc3e1c3fca68ed065e00701924a3eb4b927
Reported Verified (0) - Fake (0) - Password (0) - Virus (0)
Uploader Anonymous

Description

The ABCs of Death 2013 FRENCH DVDRip XviD - playXD


Video
ID : 0
Format : MPEG-4 Visual
Format profile : Advanced Simple@L5
Format settings, BVOP : 2
Format settings, QPel : No
Format settings, GMC : No warppoints
Format settings, Matrix : Default (H.263)
Muxing mode : Packed bitstream
Codec ID : XVID
Codec ID/Hint : XviD
Duration : 2h 03mn
Bit rate : 802 Kbps
Width : 720 pixels
Height : 310 pixels
Display aspect ratio : 2.500
Frame rate : 23.976 fps
Color space : YUV
Chroma subsampling : 4:2:0
Bit depth : 8 bits
Scan type : Progressive
Compression mode : Lossy
Bits/(Pixel*Frame) : 0.420
Stream size : 657 MiB (94%)
Writing library : XviD 64

Audio
ID : 1
Format : MPEG Audio
Format version : Version 1
Format profile : Layer 3
Mode : Joint stereo
Mode extension : MS Stereo
Codec ID : 55
Codec ID/Hint : MP3
Duration : 2h 03mn
Bit rate mode : Constant
Bit rate : 128 Kbps
Channel(s) : 2 channels
Sampling rate : 44.1 KHz
Compression mode : Lossy
Stream size : 42.7 MiB (6%)
Alignment : Split accross interleaves
Interleave, duration : 42 ms (1.00 video frame)

Comments on The ABCs of Death 2013 FRENCH DVDRip XviD - playXD

00 COMMENT(S) INSIDE

No comments available for this file !



Post a comment

Username
Password



Files

Filename Size
cover.jpg 556 KB
screenshot1.jpg 44 KB
screenshot2.jpg 42 KB
screenshot3.jpg 36 KB
The ABCs of Death 2013 FRENCH DVDRip XviD - playXD.nfo 2 KB
The ABCs of Death 2013 FRENCH DVDRip XviD - playXD 699.9 MB

Share The ABCs of Death 2013 FRENCH DVDRip XviD - playXD

Permalink URL
Standard HREF Link Code
Link For Forums
Bookmark

Related torrents

Other torrents that might interest you

Movies torrents: recent searches



www.usenet.nl


Torrents Stats
ADDED TODAY
4248 torrent(s)
TOTAL
13198246 torrents

Cinema News


Latest searches

Friends


RSS2



DMCA Info  |  Privacy policy  |  Contact  | 
Copyright 2007-2013 ©SUMOTorrent. All rights reserved.

Download The ABCs of Death 2013 FRENCH DVDRip XviD - playXDTorrent