Download The Incredible Burt Wonderstone.2013.BDRip.XviD-SPLiTSViLLETorrent

login Login create account Create account Separator English  Francais  Espanol  Italiano  Deutsch
Torrent > Movies > Comedy > The Incredible Burt Wonderstone.2013.BDRip.XviD-SPLiTSViLLE


The Incredible Burt Wonderstone.2013.BDRip.XviD-SPLiTSViLLE


Information about The Incredible Burt Wonderstone.2013.BDRip.XviD-SPLiTSViLLE

- Download torrent

Seeds 71
Peers 26
Size 711.6 MB
Date Thursday, 21 March 2013 at 00:01:40
Comments 0
Category Movies Comedy
Hash fb837064cf7af33becf2bb13cdcae184fd665dbc
Reported Verified (0) - Fake (0) - Password (0) - Virus (0)
Uploader Anonymous

Description




Media Info -
General
Format : MPEG-PS
File size : 711 MiB
Duration : 2h 6mn
Overall bit rate mode : Variable
Overall bit rate : 789 Kbps
Video #224
ID : 224 (0xE0)
Format : MPEG Video
Format version : Version 2
Format profile : Main@Main
Format settings, BVOP : Yes
Format settings, Matrix : Default
Duration : 2h 6mn
Bit rate mode : Variable
Bit rate : 645 Kbps
Maximum bit rate : 9 672 Kbps
Width : 352 pixels
Height : 288 pixels
Display aspect ratio : 4:3
Frame rate : 25.000 fps
Standard : PAL
Color space : YUV
Chroma subsampling : 4:2:0
Bit depth : 8 bits
Scan type : Progressive
Compression mode : Lossy
Bits/(Pixel*Frame) : 0.255
Stream size : 581 MiB (82%)

Audio #192
ID : 192 (0xC0)
Format : MPEG Audio
Format version : Version 1
Format profile : Layer 2
Duration : 2h 6mn
Bit rate mode : Constant
Bit rate : 128 Kbps
Channel(s) : 2 channels
Sampling rate : 48.0 KHz
Compression mode : Lossy
Stream size : 115 MiB (16%)

Comments on The Incredible Burt Wonderstone.2013.BDRip.XviD-SPLiTSViLLE

00 COMMENT(S) INSIDE

No comments available for this file !



Post a comment

Username
Password



Files

Filename Size
subtitles 46 KB
subtitles 70 KB
subtitles 31 KB
The Incredible Burt Wonderstone.2013.BDRip.wmv 710.5 MB
READ this before playing the Video.txt 6 KB
info.nfo 6 KB

Share The Incredible Burt Wonderstone.2013.BDRip.XviD-SPLiTSViLLE

Permalink URL
Standard HREF Link Code
Link For Forums
Bookmark

Other torrents that might interest you

Movies torrents: recent searches



www.usenet.nl


Torrents Stats
ADDED TODAY
3794 torrent(s)
TOTAL
13218277 torrents

Cinema News


Latest searches

Friends


RSS2



DMCA Info  |  Privacy policy  |  Contact  | 
Copyright 2007-2013 ©SUMOTorrent. All rights reserved.

Download The Incredible Burt Wonderstone.2013.BDRip.XviD-SPLiTSViLLETorrent