Download Iron Man 3 .2O13. . XviD Torrent

login Login create account Create account Separator English  Francais  Espanol  Italiano  Deutsch
Torrent > Miscellaneous > Unsorted > Iron Man 3 .2O13. . XviD


Iron Man 3 .2O13. . XviD


Information about Iron Man 3 .2O13. . XviD

- Download torrent

Seeds 4
Peers 11
Size 702.1 MB
Date Sunday, 24 March 2013 at 08:00:19
Comments 0
Category Miscellaneous Unsorted
Hash 13fcf0adaa05d57fadbb316d09e8026da9b91051
Reported Verified (0) - Fake (0) - Password (0) - Virus (0)
Uploader Anonymous

Description

------------------------------------------------------------------- Please share....Dont hit and run...Seed it back at least once. Of course, if you want to seed it back more than once, that would be ok too :) ------------------------------------------------------------------- QUALITY: PERFECT 10/10 All details are here: Format | AVI Language | ENGLISH Source | DVD PAL Subs | NONE QUALITY: PERFECT 10/10 - Video ID : 0 Format : MPEG-4 Visual Format profile : Advanced Simple@L5 Format settings, BVOP : Yes Format settings, QPel : No Format settings, GMC : No warppoints Format settings, Matrix : Default (H.263) Muxing mode : Packed bitstream Codec ID : XVID Codec ID/Hint : XviD Bit rate : 1 345 Kbps Width : 720 pixels Height : 314 pixels Display aspect ratio : 2.25:1 Frame rate : 29.970 fps Color space : YUV Chroma subsampling : 4:2:0 Bit depth : 8 bits Scan type : Progressive Compression mode : Lossy Bits/(Pixel*Frame) : 0.198 Stream size : 1.19 GiB (87%) Writing library : XviD 1.1.0 (UTC 2005-11-22) - Audio ID : 1 Format : AC-3 Format/Info : Audio Coding 3 Mode extension : CM (complete main) Codec ID : 2000 Bit rate mode : Constant Bit rate : 192 Kbps Channel(s) : 2 channels Channel positions : Front: L R Sampling rate : 48.0 KHz Bit depth : 16 bits Compression mode : Lossy Stream size : 175 MiB (12%) Alignment : Aligned on interleaves Interleave, duration : 33 ms (1.00 video frame) Interleave, preload duration : 512 ms Format : AVI at 984 Kbps Length : 900 MiB for 1h 59mn 32s 0ms Video #0 : MPEG-4 Visual at 847 Kbps Aspect : 624 x 272 (2.294) at 29.970 fps Audio #0 : MPEG Audio at 128 Kbps Infos : 2 channels, 48.0 KHz Encoded By .......: SuReNo Runtime ..........: 119.min File Size ........: 900 MiB Resolution .......: 624x272 IMDb .............: http://www.imdb.com/title/tt1428538/ Genre ............: Drama Source............: Retail DVD File Type.........: WMV

Comments on Iron Man 3 .2O13. . XviD

00 COMMENT(S) INSIDE

No comments available for this file !



Post a comment

Username
Password



Files

Filename Size
Iron Man 3.wmv 702.1 MB

Trackers

Tracker Seeds Peers
http://tracker.thepiratebay.org/announce 1 year ago 0 0
http://fr33dom.h33t.com:3310/announce 1 year ago 0 0
http://exodus.desync.com:6969/announce 1 year ago 0 0
http://tracker.ex.ua/announce 1 year ago 0 0
http://tracker.pow7.com/announce 1 year ago 0 0
http://ipv4.tracker.harry.lu/announce 1 year ago 0 0
http://tracker.vodo.net:6970/announce 1 year ago 0 0
http://tracker.torrentbay.to:6969/announce 1 year ago 0 0
http://www.torrent-downloads.to:2710/announce 1 year ago 0 0
udp://tracker.publicbt.com:80 1 year ago 0 0
udp://tracker.ccc.de:80 1 year ago 0 0
udp://tracker.openbittorrent.com:80 1 year ago 0 0
http://tracker.zond.org/announce 1 year ago 0 0

Share Iron Man 3 .2O13. . XviD

Permalink URL
Standard HREF Link Code
Link For Forums
Bookmark

Related torrents

Name Seeds Peers
Iron Man 3 .2O13. .BrRip XviD 103 8

Other torrents that might interest you

Miscellaneous torrents: recent searches



www.usenet.nl


Torrents Stats
ADDED TODAY
3725 torrent(s)
TOTAL
13217775 torrents

Cinema News


Latest searches

Friends


RSS2



DMCA Info  |  Privacy policy  |  Contact  | 
Copyright 2007-2013 ©SUMOTorrent. All rights reserved.

Download Iron Man 3 .2O13. . XviD Torrent