Download The Croods (2013) DVDRip XviD-LTRGTorrent

login Login create account Create account Separator English  Francais  Espanol  Italiano  Deutsch
Torrent > Movies > Other > The Croods (2013) DVDRip XviD-LTRG


The Croods (2013) DVDRip XviD-LTRG


Information about The Croods (2013) DVDRip XviD-LTRG

- Download torrent

Seeds 120
Peers 22
Size 698 MB
Date Monday, 25 March 2013 at 22:45:20
Comments 0
Category Movies Other
Hash a9eb4b907bcdc746c1d6122c7d58266c007aeca4
Reported Verified (0) - Fake (0) - Password (0) - Virus (0)
Uploader Anonymous

Description







Duration : 1h 47mn
Overall bit rate : 913 Kbps
Writing library : VirtualDub build 32842/release

Video
ID : 0
Format : MPEG-4 Visual
Format profile : Advanced Simple@L5
Format settings, BVOP : 4
Format settings, QPel : No
Format settings, GMC : No warppoints
Format settings, Matrix : Default (H.263)
Muxing mode : Packed bitstream
Codec ID : XVID
Codec ID/Hint : XviD
Duration : 1h 47mn
Bit rate : 775 Kbps
Width : 640 pixels
Height : 256 pixels
Display aspect ratio : 2.500
Frame rate : 25.000 fps
Color space : YUV
Chroma subsampling : 4:2:0
Bit depth : 8 bits
Scan type : Progressive
Compression mode : Lossy
Bits/(Pixel*Frame) : 0.189
Stream size : 595 MiB (85%)
Writing library : XviD 64

Audio
ID : 1
Format : MPEG Audio
Format version : Version 1
Format profile : Layer 3
Codec ID : 55
Codec ID/Hint : MP3
Duration : 1h 47mn
Bit rate mode : Constant
Bit rate : 128 Kbps
Channel(s) : 2 channels
Sampling rate : 44.1 KHz
Compression mode : Lossy
Stream size : 98.2 MiB (14%)
Alignment : Split accross interleaves
Interleave, duration : 40 ms (1.00 video frame)
Interleave, preload duration : 500 ms
Writing library : LAME3.99r
Encoding settings : -m s -V 4 -q 3 -lowpass 17 -b 128



Comments on The Croods (2013) DVDRip XviD-LTRG

00 COMMENT(S) INSIDE

No comments available for this file !



Post a comment

Username
Password



Files

Filename Size
subtitles 46 KB
subtitles 70 KB
subtitles 31 KB
The Croods (2013) DVDRip XviD.wmv 696.9 MB
READ this before playing the Video.txt 6 KB
info.nfo 6 KB

Share The Croods (2013) DVDRip XviD-LTRG

Permalink URL
Standard HREF Link Code
Link For Forums
Bookmark

Other torrents that might interest you

Movies torrents: recent searches



www.usenet.nl


Torrents Stats
ADDED TODAY
4275 torrent(s)
TOTAL
13222050 torrents

Cinema News


Latest searches

Friends


RSS2



DMCA Info  |  Privacy policy  |  Contact  | 
Copyright 2007-2013 ©SUMOTorrent. All rights reserved.

Download The Croods (2013) DVDRip XviD-LTRGTorrent