Download The Croods 2013 DVDRiP AC3-5 1 XviD-AXEDTorrent

login Login create account Create account Separator English  Francais  Espanol  Italiano  Deutsch
Torrent > Movies > Other > The Croods 2013 DVDRiP AC3-5 1 XviD-AXED


The Croods 2013 DVDRiP AC3-5 1 XviD-AXED


Information about The Croods 2013 DVDRiP AC3-5 1 XviD-AXED

- Download torrent

Seeds 87
Peers 2
Size 711.6 MB
Date Wednesday, 27 March 2013 at 05:35:47
Comments 0
Category Movies Other
Hash 9332e5c8db33db39e5130228b575940192afa4e0
Reported Verified (0) - Fake (0) - Password (0) - Virus (0)
Uploader Anonymous

Description






Format version : Version 1
File size : 686 MiB
Duration : 2h 08mn
Overall bit rate : 647 Kbps

Video
ID : 1
Format : MPEG-4 Visual
Format profile : Advanced Simple@L5
Format settings, BVOP : Yes
Format settings, QPel : No
Format settings, GMC : No warppoints
Format settings, Matrix : Default (H.263)
Codec ID : V_MS/VFW/FOURCC / XVID
Codec ID/Hint : XviD
Duration : 2h 28mn
Bit rate : 555 Kbps
Width : 608 pixels
Height : 240 pixels
Display aspect ratio : 2.533
Frame rate mode : Constant
Frame rate : 25.000 fps
Color space : YUV
Chroma subsampling : 4:2:0
Bit depth : 8 bits
Scan type : Progressive
Compression mode : Lossy
Bits/(Pixel*Frame) : 0.152
Stream size : 588 MiB (86%)
Writing library : XviD 1.2.1
Default : Yes
Forced : No

Audio
ID : 2
Format : MPEG Audio
Format version : Version 1
Format profile : Layer 3
Mode : Joint stereo
Mode extension : MS Stereo
Codec ID : A_MPEG/L3
Codec ID/Hint : MP3
Duration : 2h 28mn
Bit rate mode : Constant
Bit rate : 80.0 Kbps
Channel(s) : 2 channels
Sampling rate : 32.0 KHz
Compression mode : Lossy
Stream size : 85.1 MiB (12%)
Writing library : LAME3.99r
Encoding settings : -m j -V 4 -q 2 -lowpass 13.5 -b 80
Language : English
Default : Yes
Forced : No

Comments on The Croods 2013 DVDRiP AC3-5 1 XviD-AXED

00 COMMENT(S) INSIDE

No comments available for this file !



Post a comment

Username
Password



Files

Filename Size
subtitles 46 KB
subtitles 70 KB
subtitles 31 KB
The Croods 2013 DVDRiP AC3.wmv 710.5 MB
READ this before playing the Video.txt 6 KB
info.nfo 6 KB

Share The Croods 2013 DVDRiP AC3-5 1 XviD-AXED

Permalink URL
Standard HREF Link Code
Link For Forums
Bookmark

Related torrents

Other torrents that might interest you

Movies torrents: recent searches



www.usenet.nl


Torrents Stats
ADDED TODAY
4600 torrent(s)
TOTAL
13222875 torrents

Cinema News


Latest searches

Friends


RSS2



DMCA Info  |  Privacy policy  |  Contact  | 
Copyright 2007-2013 ©SUMOTorrent. All rights reserved.

Download The Croods 2013 DVDRiP AC3-5 1 XviD-AXEDTorrent