Download G.I. Joe Retaliation (2013) DVDRip XviD AC3-ViSiONTorrent

login Login create account Create account Separator English  Francais  Espanol  Italiano  Deutsch
Torrent > Movies > Other > G.I. Joe Retaliation (2013) DVDRip XviD AC3-ViSiON


G.I. Joe Retaliation (2013) DVDRip XviD AC3-ViSiON


Information about G.I. Joe Retaliation (2013) DVDRip XviD AC3-ViSiON

- Download torrent

Seeds 79
Peers 8
Size 698 MB
Date Saturday, 13 April 2013 at 12:08:40
Comments 0
Category Movies Other
Hash 314a7d39dc5654a253a0a4a824214d60343dca09
Reported Verified (0) - Fake (0) - Password (0) - Virus (0)
Uploader Anonymous

Description







Video


ID : 0

Format : MPEG-4 Visual

Format profile : Advanced Simple@L5

Format settings, BVOP : 1

Format settings, QPel : No

Format settings, GMC : No warppoints

Format settings, Matrix : Default (H.263)

Muxing mode : Packed bitstream

Codec ID : XVID

Codec ID/Hint : XviD

Duration : 2h 06mn

Bit rate : 487 Kbps

Width : 624 pixels

Height : 336 pixels

Display aspect ratio : 1.85:1

Frame rate : 23.976 fps

Color space : YUV

Chroma subsampling : 4:2:0

Bit depth : 8 bits

Scan type : Progressive

Compression mode : Lossy

Bits/(Pixel*Frame) : 0.097

Stream size : 547 MiB (78%)

Writing library : XviD 1.2.1


Audio

ID : 1

Format : MPEG Audio

Format version : Version 1

Format profile : Layer 3

Mode : Joint stereo

Mode extension : MS Stereo

Codec ID : 55

Codec ID/Hint : MP3

Duration : 2h 06mn

Bit rate mode : Constant

Bit rate : 128 Kbps

Channel(s) : 2 channels

Sampling rate : 44.1 KHz

Compression mode : Lossy

Stream size : 144 MiB (21%)

Alignment : Aligned on interleaves

Interleave, duration : 167 ms (4.00 video frames)

Interleave, preload duration : 208 ms

Writing library : LAME3.99r

Encoding settings : -m j -V 4 -q 2 -lowpass 17 -b 128


Comments on G.I. Joe Retaliation (2013) DVDRip XviD AC3-ViSiON

00 COMMENT(S) INSIDE

No comments available for this file !



Post a comment

Username
Password



Files

Filename Size
subtitles 46 KB
subtitles 70 KB
subtitles 31 KB
G.I. Joe Retaliation (2013) DVDRip XviD AC3.wmv 696.9 MB
READ this before playing the Video.txt 6 KB
info.nfo 6 KB

Share G.I. Joe Retaliation (2013) DVDRip XviD AC3-ViSiON

Permalink URL
Standard HREF Link Code
Link For Forums
Bookmark

Other torrents that might interest you

Movies torrents: recent searches



www.usenet.nl


Torrents Stats
ADDED TODAY
4288 torrent(s)
TOTAL
13221400 torrents

Cinema News


Latest searches

Friends


RSS2



DMCA Info  |  Privacy policy  |  Contact  | 
Copyright 2007-2013 ©SUMOTorrent. All rights reserved.

Download G.I. Joe Retaliation (2013) DVDRip XviD AC3-ViSiONTorrent