Download Amities.Sinceres.2012.FRENCH.DVDRIP.XViD-STVFRVTorrent

login Login create account Create account Separator English  Francais  Espanol  Italiano  Deutsch
Torrent > Movies > Comedy > Amities.Sinceres.2012.FRENCH.DVDRIP.XViD-STVFRV


Amities.Sinceres.2012.FRENCH.DVDRIP.XViD-STVFRV


Information about Amities.Sinceres.2012.FRENCH.DVDRIP.XViD-STVFRV

- Download torrent

Seeds 76
Peers 1
Size 700 MB
Date Saturday, 08 June 2013 at 05:12:13
Comments 0
Category Movies Comedy
Hash 326ae47205af8494a21bab7a6351f59ec803cd3f
Reported Verified (0) - Fake (0) - Password (0) - Virus (0)
Uploader xxMax88xx

Description

General
Complete name : Amities.Sinceres.2012.FRENCH.DVDRIP.XViD-STVFRV.avi
Format : AVI
Format/Info : Audio Video Interleave
File size : 700 MiB
Duration : 1h 44mn
Overall bit rate : 1 069 Kbps
Writing application : VirtualDubMod 1.5.1.1a (build 1155/release)
Writing library : VirtualDubMod build 1155/release

Video
ID : 0
Format : MPEG-4 Visual
Format profile : Advanced Simple@L5
Format settings, BVOP : 1
Format settings, QPel : No
Format settings, GMC : No warppoints
Format settings, Matrix : Default (MPEG)
Codec ID : XVID
Codec ID/Hint : XviD
Duration : 1h 44mn
Bit rate : 882 Kbps
Width : 624 pixels
Height : 352 pixels
Display aspect ratio : 16:9
Frame rate : 23.976 fps
Color space : YUV
Chroma subsampling : 4:2:0
Bit depth : 8 bits
Scan type : Progressive
Compression mode : Lossy
Bits/(Pixel*Frame) : 0.168
Stream size : 578 MiB (83%)
Writing library : XviD 1.2.1 (UTC 2008-12-04)

Audio
ID : 1
Format : MPEG Audio
Format version : Version 1
Format profile : Layer 3
Codec ID : 55
Codec ID/Hint : MP3
Duration : 1h 44mn
Bit rate mode : Variable
Bit rate : 174 Kbps
Channel(s) : 2 channels
Sampling rate : 48.0 KHz
Compression mode : Lossy
Stream size : 114 MiB (16%)
Alignment : Aligned on interleaves
Interleave, duration : 24 ms (0.58 video frame)
Interleave, preload duration : 88 ms

Comments on Amities.Sinceres.2012.FRENCH.DVDRIP.XViD-STVFRV

00 COMMENT(S) INSIDE

No comments available for this file !



Post a comment

Username
Password



Files

Filename Size
Amities.Sinceres.2012.FRENCH.DVDRIP.XViD-STVFRV.avi 700 MB

Share Amities.Sinceres.2012.FRENCH.DVDRIP.XViD-STVFRV

Permalink URL
Standard HREF Link Code
Link For Forums
Bookmark

Other torrents that might interest you

Movies torrents: recent searches



www.usenet.nl


Torrents Stats
ADDED TODAY
2809 torrent(s)
TOTAL
13202357 torrents

Cinema News


Latest searches

Friends


RSS2



DMCA Info  |  Privacy policy  |  Contact  | 
Copyright 2007-2013 ©SUMOTorrent. All rights reserved.

Download Amities.Sinceres.2012.FRENCH.DVDRIP.XViD-STVFRVTorrent