Download The.Taking.2013.720p.BRRip.x264.HDTorrent

login Iniciar Sesión create account Crear cuenta Separator English  Francais  Espanol  Italiano  Deutsch
Torrent > Movies > Horror > The.Taking.2013.720p.BRRip.x264.HD


The.Taking.2013.720p.BRRip.x264.HD


información sobre The.Taking.2013.720p.BRRip.x264.HD

- Descargar este torrent

Seeds 454
Peers 311
Tamaño 775.3 MB
Agregado Wednesday, 11 September 2013 at 16:37:21
Commentts 0
Categoría Movies Horror
Hash 5e17a2e5a4c60e9840299484aed9008aca76603d
Reporte Verified (2) - Fake (0) - Password (0) - Virus (0)
Uploader Anonymous

Description

Format : AVI
Format/Info : Audio Video Interleave
Format profile : OpenDML
Overall bit rate : 1 800 Kbps
Writing application : VirtualDubMod 1.5.10.2 (build 2542/release)
Writing library : VirtualDubMod build 2542/release

Video

Format : MPEG-4 Visual
Format settings, BVOP : Yes
Format settings, QPel : No
Format settings, Matrix : Default (MPEG)
Codec ID : x264
Codec ID/Hint : x264
Bit rate : 1 411 Kbps
Width : 1280 pixels
Height : 720 pixels
Display aspect ratio : 16:9
Frame rate : 29.97 fps
Resolution : 24 bits
Colorimetry : 4:2:0
Scan type : Progressive
Bits/(Pixel*Frame) : 0.338
Stream size : 1.03 GiB (78%)

Audio

Format : AC-3
Format/Info : Audio Coding 3
Codec ID : 2000
Bit rate mode : Constant
Bit rate : 384 Kbps
Channel(s) : 6 channels
Channel positions : Front: L C R, Surround: L R, LFE
Sampling rate : 48.0 KHz
Stream size : 287 MiB (21%)
Alignment : Aligned on interleaves
Interleave, duration : 64 ms (1.53 video frames)
Interleave, preload duration : 192 ms

Comentarios sobre The.Taking.2013.720p.BRRip.x264.HD

00 COMMENT(S) INSIDE

¡No hay comentarios para este archivo!



Post a comment

Username
Password



Files

Filename Size
Torrent Downloaded From downloadhindimovies.in.txt 2 KB
Torrent downloaded from h33t.com.txt 2 KB
Dmt Nfo.txt 2 KB
The.Taking.2013.720p.BRRip.x264.HD.nfo 2 KB
The.Taking.2013.720p.BRRip.x264.HD.avi 10 MB
The.Taking.2013.720p.BRRip.x264.HD.jpeg 1 MB
The.Taking.2013.720p.BRRip.x264.HD 764 MB

Share The.Taking.2013.720p.BRRip.x264.HD

Permalink URL
Standard HREF Link Code
Link For Forums
Bookmark

Otros torrentes que pueden interesarle

Movies torrents: búsquedas recientes



www.usenet.nl


Estadísticas del torrent
AGREGADOS HOY
3755 torrent(s)
TOTAL
13200596 torrents

Cinema News


Últimas búsquedas

Amigos


RSS2



Información DMCA  |  Política de privacidad  |  Contacto  | 
Copyright 2007-2013 ©SUMOTorrent. Todos los derechos reservados.

Download The.Taking.2013.720p.BRRip.x264.HDTorrent